Мыльная пена / Soapdish (Майкл Хоффман / Michael Hoffman) [1991, США, мелодрама, комедия, WEB-DL 720p] 2xMVO + AVO + Sub Eng + Original Eng

Ответить на тему
 
Автор Сообщение

user ®

Стаж: 7 лет 7 месяцев

Сообщений: 20008

Пост Пост: #1 от 27-Ноя-2013 20:05

[Цитировать]

Мыльная пена / Soapdish Страна: США
Студия: Paramount Pictures
Жанр: мелодрама, комедия
Год выпуска: 1991
Продолжительность: 01:36:25
Перевод 1: Профессиональный (многоголосый закадровый)
Перевод 2: Профессиональный (многоголосый закадровый)
Перевод 3: Авторский (одноголосый закадровый) [А.Михалев]
Cубтитры: английские
Оригинальная аудиодорожка: английский
Режиссер: Майкл Хоффман / Michael Hoffman
В ролях: Салли Филд, Кевин Клайн, Роберт Дауни мл., Кэти Мориарти, Элизабет Шу, Вупи Голдберг, Тери Хэтчер, Гэрри Маршалл, Кэти Нэджими, Арни Наннестад, Пол Йоханссон, Шейла Келли, Лиза Гиббонс, Джон Тэш, Стивен Николс, Кэрри Фишер, Костас Мэндилор, Финола Хьюз
Описание: Нешуточные страсти разгораются не только на съемочной площадке мыльной оперы, но и за ее пределами. Главная героиня, звезда телевидения, стала жертвой интриг со стороны ее молодых соперниц.-Доп. информация: -Тип релиза: WEB-DL 720p
Контейнер: MKV
Видео: MPEG-4 AVC Video, 1280x720 / 1,78:1 (16:9) / ~ 4163 kbps / 23,976 fps / High@L3.1
Аудио 1: Russian: AC3, 2.0 ch, 192 kbps, 48 kHz | многоголосый
Аудио 2: Russian: AC3, 2.0 ch, 192 kbps, 48 kHz | многоголосый
Аудио 3: Russian: AC3, 2.0 ch, 192 kbps, 48 kHz | одноголосый
Аудио 4: English: AC3, 6 ch, 384 kbps, 48 kHz
Формат субтитров: softsub (SRT)
Главы: подписаны

MediaInfo

Общее
Уникальный идентификатор : 206010015275438519289967969895662702616 (0x9AFC15F2280BD29CA40A567094835018)
Полное имя : I:\Мыльная пена 1991.WEB-DL.720p.2хПМ.АО.Eng.mkv
Формат : Matroska
Версия формата : Version 4 / Version 2
Размер файла : 3,45 Гбайт
Продолжительность : 1 ч. 36 м.
Общий поток : 5129 Кбит/сек
Название фильма : Soapdish (1991)
Дата кодирования : UTC 2013-11-27 08:38:55
Программа кодирования : mkvmerge v6.5.0 ('Isn't she lovely') built on Oct 20 2013 12:50:05
Библиотека кодирования : libebml v1.3.0 + libmatroska v1.4.1
Видео
Идентификатор : 1
Формат : AVC
Формат/Информация : Advanced Video Codec
Профиль формата : High@L3.1
Параметр CABAC формата : Нет
Параметр ReFrames формата : 2 кадра
Идентификатор кодека : V_MPEG4/ISO/AVC
Продолжительность : 1 ч. 36 м.
Битрейт : 4163 Кбит/сек
Ширина : 1280 пикселей
Высота : 720 пикселей
Соотношение сторон : 16:9
Режим частоты кадров : Постоянный
Частота кадров : 23,976 кадра/сек
Цветовое пространство : YUV
Субдискретизация насыщенности : 4:2:0
Битовая глубина : 8 бит
Тип развёртки : Прогрессивная
Бит/(Пиксели*Кадры) : 0.188
Размер потока : 2,80 Гбайт (81%)
Язык : English
Default : Да
Forced : Нет
Основные цвета : BT.709
Характеристики трансфера : BT.709
Коэффициенты матрицы : BT.709
Аудио #1
Идентификатор : 2
Формат : AC-3
Формат/Информация : Audio Coding 3
Расширение режима : CM (complete main)
Параметр Endianness формата : Big
Идентификатор кодека : A_AC3
Продолжительность : 1 ч. 36 м.
Вид битрейта : Постоянный
Битрейт : 160 Кбит/сек
Каналы : 2 канала
Расположение каналов : Front: L R
Частота : 48,0 КГц
Битовая глубина : 16 бит
Метод сжатия : С потерями
Размер потока : 110 Мбайт (3%)
Заголовок : MVO1
Язык : Russian
Default : Да
Forced : Нет
Аудио #2
Идентификатор : 3
Формат : AC-3
Формат/Информация : Audio Coding 3
Расширение режима : CM (complete main)
Параметр Endianness формата : Big
Идентификатор кодека : A_AC3
Продолжительность : 1 ч. 36 м.
Вид битрейта : Постоянный
Битрейт : 160 Кбит/сек
Каналы : 2 канала
Расположение каналов : Front: L R
Частота : 48,0 КГц
Битовая глубина : 16 бит
Метод сжатия : С потерями
Размер потока : 110 Мбайт (3%)
Заголовок : MVO2
Язык : Russian
Default : Нет
Forced : Нет
Аудио #3
Идентификатор : 4
Формат : AC-3
Формат/Информация : Audio Coding 3
Расширение режима : CM (complete main)
Параметр Endianness формата : Big
Идентификатор кодека : A_AC3
Продолжительность : 1 ч. 36 м.
Вид битрейта : Постоянный
Битрейт : 160 Кбит/сек
Каналы : 2 канала
Расположение каналов : Front: L R
Частота : 48,0 КГц
Битовая глубина : 16 бит
Метод сжатия : С потерями
Размер потока : 110 Мбайт (3%)
Заголовок : AVO
Язык : Russian
Default : Нет
Forced : Нет
Аудио #4
Идентификатор : 5
Формат : AC-3
Формат/Информация : Audio Coding 3
Расширение режима : CM (complete main)
Параметр Endianness формата : Big
Идентификатор кодека : A_AC3
Продолжительность : 1 ч. 36 м.
Вид битрейта : Постоянный
Битрейт : 384 Кбит/сек
Каналы : 6 каналов
Расположение каналов : Front: L C R, Side: L R, LFE
Частота : 48,0 КГц
Битовая глубина : 16 бит
Метод сжатия : С потерями
Размер потока : 265 Мбайт (7%)
Язык : English
Default : Нет
Forced : Нет
Текст
Идентификатор : 6
Формат : UTF-8
Идентификатор кодека : S_TEXT/UTF8
Идентификатор кодека/Информация : UTF-8 Plain Text
Язык : English
Default : Нет
Forced : Нет
Меню
00:00:00.000 : en:Night Of A Thousand Stars
00:08:58.000 : en:No Turbans For Miss Talbert
00:15:31.000 : en:Across The GWB
00:20:56.000 : en:Make Maggie A Murderess
00:26:25.000 : en:The Mute Speaks
00:34:13.000 : en:Find Jeffrey Anderson
00:41:10.000 : en:Back From The Dead
00:49:03.000 : en:Aunt Celeste
00:57:21.000 : en:Climbing The Drainpipe
01:01:28.000 : en:Mommy And Daddy
01:07:21.000 : en:The Queen Of Misery
01:13:02.000 : en:Ingenue From Hell
01:21:40.000 : en:Live Broadcast
01:27:20.000 : en:Truth Serum
01:32:20.000 : en:A Storybook Ending

-

Скриншот с названием фильма

Скачать

Скачать торрент!

Как скачивать? · Что такое торрент? · Рейтинг и ограничения

Сайт не распространяет и не хранит электронные версии произведений, а лишь предоставляет доступ к создаваемому пользователями каталогу ссылок на торрент-файлы, которые содержат только списки хеш-сумм

[Профиль] [ЛС]
Показать сообщения:    
Ответить на тему

Текущее время: Сегодня 19:23

Часовой пояс: GMT + 4



Вы не можете начинать темы
Вы не можете отвечать на сообщения
Вы не можете редактировать свои сообщения
Вы не можете удалять свои сообщения
Вы не можете голосовать в опросах
Вы не можете прикреплять файлы к сообщениям
Вы не можете скачивать файлы