Железный человек и Халк: Союз героев / Iron Man & Hulk: Heroes United (Лео Райли / Leo Reilly) [2013, фантастика, боевик, HDRip]

Ответить на тему
 
Автор Сообщение

user ®

Стаж: 13 лет

Сообщений: 15041

Пост Пост: #1 от 27-Ноя-2013 16:55

[Цитировать]

Железный человек и Халк: Союз героев / Iron Man & Hulk: Heroes United
Страна: США
Жанр: фантастика, боевик
Продолжительность: 01:11:44
Год выпуска: 2013
Перевод: Профессиональный (дублированный)
Русские субтитры: нет
Режиссёр: Лео Райли/Leo Reilly
Роли озвучивали: Адриан Пасдар, Ди Брэдли Бейкер, Фред Татаскьор
Описание: Халк и Железный человек объединили свои невероятные силы во имя борьбы за спасение человечества, а в это время еще один сверхчеловек стал представлять угрозу для Халка, он телепортируется и постоянно получает улучшенную ДНК, что делает его почти неуязвимым. Только вдвоем можно сразить грозного врага.
Семпл: http://multi-up.com/927193
Качество: HDRip
Формат: AVI
Видео: 720x400 (1.80:1), 23.976 fps, XviD build 50, 1225 kbps avg, 0.18 bit/pixel
Аудио: 48 kHz, MPEG Layer 3, 2 ch, 128.00 kbps avg
Субтитры: отсутствуют

Подробные технические данные

Schelesy.Thelovek.avi Format : AVI Format/Info : Audio Video Interleave File size : 699 MiB Duration : 1h 11mn Overall bit rate : 1 363 Kbps Writing application : VirtualDubMod 1.5.10.2 (build 2540/release) Writing library : VirtualDubMod build 2540/release Video #0 ID : 0 Format : MPEG-4 Visual Format profile : Advanced Simple@L5 Format settings, BVOP : 2 Format settings, QPel : No Format settings, GMC : No warppoints Format settings, Matrix : Custom Codec ID : XVID Codec ID/Hint : XviD Duration : 1h 11mn Bit rate : 1 226 Kbps Width : 720 pixels Height : 400 pixels Display aspect ratio : 16:9 Frame rate : 23.976 fps Color space : YUV Chroma subsampling : 4:2:0 Bit depth : 8 bits Scan type : Progressive Compression mode : Lossy Bits/(Pixel*Frame) : 0.177 Stream size : 629 MiB (90%) Writing library : XviD 1.2.1 (UTC 2008-12-04) Audio #1 ID : 1 Format : MPEG Audio Format version : Version 1 Format profile : Layer 3 Codec ID : 55 Codec ID/Hint : MP3 Duration : 1h 11mn Bit rate mode : Constant Bit rate : 128 Kbps Channel(s) : 2 channels Sampling rate : 48.0 KHz Compression mode : Lossy Stream size : 65.7 MiB (9%) Alignment : Aligned on interleaves Interleave, duration : 42 ms (1.00 video frame) Interleave, preload duration : 504 ms Writing library : LAME3.99r Encoding settings : -m s -V 4 -q 2 -lowpass 17 -b 128

Скриншоты

Скачать

Скачать торрент! Железный человек и Халк: Союз героев / Iron Man & Hulk: Heroes United (Лео Райли / Leo Reilly) [2013, фантастика, боевик, HDRip]

Как скачивать? · Что такое торрент? · Рейтинг и ограничения

Сайт не распространяет и не хранит электронные версии произведений, а лишь предоставляет доступ к создаваемому пользователями каталогу ссылок на торрент-файлы, которые содержат только списки хеш-сумм

[Профиль] [ЛС]
Показать сообщения:    
Ответить на тему

Текущее время: Сегодня 20:22

Часовой пояс: GMT + 4



Вы не можете начинать темы
Вы не можете отвечать на сообщения
Вы не можете редактировать свои сообщения
Вы не можете удалять свои сообщения
Вы не можете голосовать в опросах
Вы не можете прикреплять файлы к сообщениям
Вы не можете скачивать файлы