Внутреннее расследование / Internal Affairs (Майк Фиггис / Mike Figgis) [1990, США, триллер, драма, криминал, BDRip 720p] MVO + AVO (Гаврилов) + Original eng + Sub rus, eng

Ответить на тему
 
Автор Сообщение

user ®

Стаж: 7 лет 7 месяцев

Сообщений: 20008

Пост Пост: #1 от 26-Ноя-2013 01:00

[Цитировать]

Внутреннее расследование / Internal Affairs
Страна: США
Жанр: триллер, драма, криминал
Год выпуска: 1990
Продолжительность: 01:54:45
Перевод#1: Профессиональный (многоголосый закадровый), со вставками Гаврилова
Перевод#2: Авторский (одноголосый закадровый), А. Гаврилов
Cубтитры: русские, английские
Оригинальная аудиодорожка: английский
Режиссер: Майк Фиггис / Mike Figgis
В ролях: Ричард Гир, Энди Гарсиа, Лори Меткалф, Нэнси Трэвис, Ричард Брэдфорд, Уильям Болдуин, Майкл Бич, Кэтрин Боровиц, Фэй Грант, Джон Капелос
Описание: Когда любой из нас попадает в беду, страж правопорядка, являющийся на помощь, подобен ангелу. В минуты несчастья он - единственный спаситель и защитник
Вы доверяете ему себя всецело и безоглядно. И ни у кого, ни при каких обстоятельствах не возникнет подозрения, что за благородной внешностью, под аккуратно отутюженным полицейским кителем может скрываться дьявол...

Тип релиза: BDRip 720p (от WESTSiDE) | sample
Контейнер: MKV
Видео кодек: x264
Видео: AVC 1280x720 (16:9), 23.976 fps, ~7200 Kbps, 0.33 bit/pixel
Аудио #1: Russian AC3 2ch 48kHz 192Kbps | MVO
Аудио #2: Russian AC3 6ch 48kHz 384Kbps | AVO Гаврилов
Аудио #3: English DTS 6ch 48kHz 1510Kbps | Original
Формат субтитров: softsub (SRT)
Главы: есть

MediaInfo | x264

x264

x264 [info]: frame I:1047 Avg QP:15.17 size:113554
x264 [info]: frame P:31424 Avg QP:16.41 size: 64202
x264 [info]: frame B:132614 Avg QP:18.38 size: 30509
x264 [info]: consecutive B-frames: 1.0% 1.1% 3.4% 15.9% 18.8% 39.6% 10.6% 5.7% 4.0%
encoded 165085 frames, 10.27 fps, 7183.01 kb/s
General
Complete name : E:\...\Internal.Affairs.1990.720p.BluRay.x264.Rus.Eng-WESTSiDE.mkv
Format : Matroska
Format version : Version 2
File size : 7.43 GiB
Duration : 1h 54mn
Overall bit rate : 9 271 Kbps
Movie name : Internal.Affairs.1990.720p.BluRay.x264.Rus.Eng-WESTSiDE
Encoded date : UTC 2013-11-21 06:50:06
Writing application : mkvmerge v6.5.0 ('Isn't she lovely') built on Oct 20 2013 12:50:05
Writing library : libebml v1.3.0 + libmatroska v1.4.1
Video
ID : 1
Format : AVC
Format/Info : Advanced Video Codec
Format profile : High@L4.1
Format settings, CABAC : Yes
Format settings, ReFrames : 9 frames
Codec ID : V_MPEG4/ISO/AVC
Bit rate : 7 001 Kbps
Width : 1 280 pixels
Height : 720 pixels
Display aspect ratio : 16:9
Frame rate mode : Variable
Original frame rate : 23.976 fps
Color space : YUV
Chroma subsampling : 4:2:0
Bit depth : 8 bits
Scan type : Progressive
Title : WESTSiDE
Writing library : x264 core 138 r2358 9e941d1
Encoding settings : cabac=1 / ref=9 / deblock=1:-3:-3 / analyse=0x3:0x133 / me=umh / subme=9 / psy=1 / psy_rd=1.05:0.00 / mixed_ref=1 / me_range=32 / chroma_me=1 / trellis=2 / 8x8dct=1 / cqm=0 / deadzone=21,11 / fast_pskip=1 / chroma_qp_offset=-2 / threads=12 / lookahead_threads=2 / sliced_threads=0 / nr=0 / decimate=1 / interlaced=0 / bluray_compat=0 / constrained_intra=0 / bframes=8 / b_pyramid=2 / b_adapt=2 / b_bias=0 / direct=3 / weightb=1 / open_gop=0 / weightp=2 / keyint=240 / keyint_min=23 / scenecut=40 / intra_refresh=0 / rc=crf / mbtree=0 / crf=17.7 / qcomp=0.70 / qpmin=0 / qpmax=69 / qpstep=4 / ip_ratio=1.40 / pb_ratio=1.30 / aq=1:0.80
Language : English
Default : Yes
Forced : No
Audio #1
ID : 2
Format : AC-3
Format/Info : Audio Coding 3
Mode extension : CM (complete main)
Format settings, Endianness : Big
Codec ID : A_AC3
Duration : 1h 54mn
Bit rate mode : Constant
Bit rate : 192 Kbps
Channel(s) : 2 channels
Channel positions : Front: L R
Sampling rate : 48.0 KHz
Bit depth : 16 bits
Compression mode : Lossy
Stream size : 158 MiB (2%)
Title : MVO
Language : Russian
Default : Yes
Forced : No
Audio #2
ID : 3
Format : AC-3
Format/Info : Audio Coding 3
Mode extension : CM (complete main)
Format settings, Endianness : Big
Codec ID : A_AC3
Duration : 1h 54mn
Bit rate mode : Constant
Bit rate : 384 Kbps
Channel(s) : 6 channels
Channel positions : Front: L C R, Side: L R, LFE
Sampling rate : 48.0 KHz
Bit depth : 16 bits
Compression mode : Lossy
Stream size : 315 MiB (4%)
Title : AVO Gavrilov
Language : Russian
Default : No
Forced : No
Audio #3
ID : 4
Format : DTS
Format/Info : Digital Theater Systems
Codec ID : A_DTS
Duration : 1h 54mn
Bit rate mode : Constant
Bit rate : 1 510 Kbps
Channel(s) : 6 channels
Channel positions : Front: L C R, Side: L R, LFE
Sampling rate : 48.0 KHz
Bit depth : 24 bits
Compression mode : Lossy
Stream size : 1.21 GiB (16%)
Title : Original
Language : English
Default : No
Forced : No
Text #1
ID : 5
Format : UTF-8
Codec ID : S_TEXT/UTF8
Codec ID/Info : UTF-8 Plain Text
Language : Russian
Default : No
Forced : No
Text #2
ID : 6
Format : UTF-8
Codec ID : S_TEXT/UTF8
Codec ID/Info : UTF-8 Plain Text
Title : SDH
Language : English
Default : No
Forced : No
Menu
00:00:00.000 : en:00:00:00.000
00:04:09.499 : en:00:04:09.499
00:07:23.068 : en:00:07:23.068
00:15:50.116 : en:00:15:50.116
00:29:24.179 : en:00:29:24.179
00:38:53.081 : en:00:38:53.081
00:49:22.376 : en:00:49:22.376
01:02:23.365 : en:01:02:23.365
01:14:36.013 : en:01:14:36.013
01:23:24.917 : en:01:23:24.917
01:29:38.456 : en:01:29:38.456
01:35:00.987 : en:01:35:00.987
01:43:24.156 : en:01:43:24.156

Скриншоты

source vs WESTSiDE



Скачать

Скачать торрент!

Как скачивать? · Что такое торрент? · Рейтинг и ограничения

Сайт не распространяет и не хранит электронные версии произведений, а лишь предоставляет доступ к создаваемому пользователями каталогу ссылок на торрент-файлы, которые содержат только списки хеш-сумм

[Профиль] [ЛС]
Показать сообщения:    
Ответить на тему

Текущее время: Сегодня 08:12

Часовой пояс: GMT + 4



Вы не можете начинать темы
Вы не можете отвечать на сообщения
Вы не можете редактировать свои сообщения
Вы не можете удалять свои сообщения
Вы не можете голосовать в опросах
Вы не можете прикреплять файлы к сообщениям
Вы не можете скачивать файлы