Чего хочет девушка / What a Girl Wants (Дэнни Гордон / Dennie Gordon) [2003, США, драма, мелодрама, комедия, HDTV 1080i] MVO (Universal Pictures Rus) + MVO (ТРК "Россия") + 3x Sub (Rus, Eng) + Original Eng

Ответить на тему
 
Автор Сообщение

user ®

Стаж: 7 лет 7 месяцев

Сообщений: 20008

Пост Пост: #1 от 24-Ноя-2013 15:30

[Цитировать]

Чего хочет девушка / What a Girl Wants
Страна: США
Жанр: драма, мелодрама, комедия
Год выпуска: 2003
Продолжительность: 01:44:54
Перевод 1: Профессиональный (многоголосый закадровый) Universal Pictures Rus
Перевод 2: Профессиональный (многоголосый закадровый) ТРК "Россия"
Cубтитры: русские (2 вида), английские
Оригинальная аудиодорожка: английский
-
Режиссер: Дэнни Гордон / Dennie Gordon
В ролях: Аманда Байнс, Колин Фёрт, Келли Престон, Айлин Эткинс, Анна Чэнселлор, Джонатан Прайс, Оливер Джеймс, Кристина Коул, Сильвия Симс, Солейл МакГи
-
Описание: Дафна, семнадцатилетняя свободолюбивая девушка, отправляется из Нью-Йорка в Англию на поиски своего отца, которого она никогда не знала. Папочка же оказывается богатым аристократом и известным политиком.
Теперь Дафне предстоит стать своей в великосветском окружении отца, погрузившись с головой в бесконечную череду богемных приемов, показов мод и вечеринок. Но сладкая жизнь омрачается множеством трудностей: Дафне предстоит освоить все тонкости этикета, наладить отношения со сводной сестрой и, самое главное, — остаться верной себе и своим идеалам.
И она блестяще справляется с поставленной целью — с находчивостью и изобретательностью, которым позавидовала бы любая юная леди.

Тип релиза: HDTV 1080i
Контейнер: MKV
Видео: MPEG-2 / NTSC 16:9 / 1920x1080 (1,85:1) / 13237 kbps / 29,970 fps / Main@High
Аудио 1: Russian / AC3 / 48 kHz / 5.1 Ch / 384 kbps / 16 bit / MVO / Universal Pictures Rus
Аудио 2: Russian / AC3 / 48 kHz / 2 Ch / 160 kbps / 16 bit / MVO / ТРК "Россия"
Аудио 3: English / AC3 / 48 kHz / 5.1 Ch / 384 kbps / 16 bit / Original
Формат субтитров: softsub (SRT)
Навигация по главам: есть

MediaInfo

Общее
Уникальный идентификатор : 246753477865388781993084551103892718074 (0xB9A2FDBEA52A3F99964F0B8395E881FA)
Полное имя : W:\HDTV\What a Girl Wants.2003.HDTV.1080i.mkv
Формат : Matroska
Версия формата : Version 4 / Version 2
Размер файла : 10,4 Гбайт
Продолжительность : 1 ч. 44 м.
Режим общего битрейта : Переменный
Общий поток : 14,2 Мбит/сек
Дата кодирования : UTC 2013-11-23 07:37:24
Программа кодирования : mkvmerge v6.5.0 ('Isn't she lovely') built on Oct 20 2013 12:50:05
Библиотека кодирования : libebml v1.3.0 + libmatroska v1.4.1
Видео
Идентификатор : 1
Формат : MPEG Video
Версия формата : Version 2
Профиль формата : Main@High
Параметр BVOP формата : Нет
Параметр матрицы формата : По умолчанию
Идентификатор кодека : V_MPEG2
Идентификатор кодека/Информация : MPEG 1 or 2 Video
Вид битрейта : Переменный
Битрейт : 13,0 Мбит/сек
Максимальный битрейт : 18,0 Мбит/сек
Ширина : 1920 пикселей
Высота : 1080 пикселей
Соотношение сторон : 16:9
Режим частоты кадров : Переменный
Частота кадров в оригинале : 29,970 кадров/сек
Цветовое пространство : YUV
Субдискретизация насыщенности : 4:2:0
Битовая глубина : 8 бит
Тип развёртки : Чересстрочная
Порядок развёртки : Нижнее поле первое
Метод сжатия : С потерями
Временной код первого кадра : 00:00:00;00
Оригинал временного кода : Group of pictures header
Язык : English
Default : Да
Forced : Нет
Аудио #1
Идентификатор : 2
Формат : AC-3
Формат/Информация : Audio Coding 3
Расширение режима : CM (complete main)
Параметр Endianness формата : Big
Идентификатор кодека : A_AC3
Продолжительность : 1 ч. 44 м.
Вид битрейта : Постоянный
Битрейт : 384 Кбит/сек
Каналы : 6 каналов
Расположение каналов : Front: L C R, Side: L R, LFE
Частота : 48,0 КГц
Битовая глубина : 16 бит
Метод сжатия : С потерями
Размер потока : 288 Мбайт (3%)
Заголовок : MVO / DVD
Язык : Russian
Default : Да
Forced : Нет
Аудио #2
Идентификатор : 3
Формат : AC-3
Формат/Информация : Audio Coding 3
Расширение режима : CM (complete main)
Параметр Endianness формата : Big
Идентификатор кодека : A_AC3
Продолжительность : 1 ч. 44 м.
Вид битрейта : Постоянный
Битрейт : 160 Кбит/сек
Каналы : 2 канала
Расположение каналов : Front: L R
Частота : 48,0 КГц
Битовая глубина : 16 бит
Метод сжатия : С потерями
Размер потока : 120 Мбайт (1%)
Заголовок : MVO / ТРК "Россия"
Язык : Russian
Default : Нет
Forced : Нет
Аудио #3
Идентификатор : 4
Формат : AC-3
Формат/Информация : Audio Coding 3
Расширение режима : CM (complete main)
Параметр Endianness формата : Big
Идентификатор кодека : A_AC3
Продолжительность : 1 ч. 44 м.
Вид битрейта : Постоянный
Битрейт : 384 Кбит/сек
Каналы : 6 каналов
Расположение каналов : Front: L C R, Side: L R, LFE
Частота : 48,0 КГц
Битовая глубина : 16 бит
Метод сжатия : С потерями
Размер потока : 288 Мбайт (3%)
Заголовок : Original
Язык : English
Default : Нет
Forced : Нет
Текст #1
Идентификатор : 5
Формат : UTF-8
Идентификатор кодека : S_TEXT/UTF8
Идентификатор кодека/Информация : UTF-8 Plain Text
Заголовок : DVD
Язык : Russian
Default : Нет
Forced : Нет
Текст #2
Идентификатор : 6
Формат : UTF-8
Идентификатор кодека : S_TEXT/UTF8
Идентификатор кодека/Информация : UTF-8 Plain Text
Заголовок : RUS [SDH]
Язык : Russian
Default : Нет
Forced : Нет
Текст #3
Идентификатор : 7
Формат : UTF-8
Идентификатор кодека : S_TEXT/UTF8
Идентификатор кодека/Информация : UTF-8 Plain Text
Заголовок : Original
Язык : English
Default : Нет
Forced : Нет
Меню
00:00:00.000 : en:Once Upon a Time
00:04:44.834 : en:No Dance Partner
00:10:17.501 : en:My Turn
00:12:40.534 : en:Next Prime Minister
00:15:48.001 : en:Dashwood Manor
00:19:27.168 : en:Be Our Guest
00:23:52.168 : en:Mature for Her Age
00:27:37.668 : en:What Are Stepsisters for?
00:31:52.868 : en:Showstopper
00:35:52.836 : en:For the Season
00:40:55.869 : en:Pointers
00:43:49.837 : en:Novelty Entrance
00:46:29.171 : en:Nasty and Nice
00:49:25.838 : en:Livening Things Up
00:52:38.205 : en:Closer Look
00:54:19.006 : en:Just Joking
00:57:17.373 : en:Born to Stand Out
01:01:36.506 : en:The Regatta
01:04:47.040 : en:Splashy Getaway
01:09:03.841 : en:Another Henry
01:11:53.542 : en:A Dashwood Too
01:16:41.343 : en:Looking Different
01:20:30.211 : en:Gotten Rid Of
01:23:29.012 : en:Done Waiting
01:28:18.546 : en:Bits and Pieces
01:31:27.347 : en:Priorities Straight
01:34:52.547 : en:Their Dance
01:39:10.014 : en:Happily Ever After

Скриншоты

Скачать

Скачать торрент!

Как скачивать? · Что такое торрент? · Рейтинг и ограничения

Сайт не распространяет и не хранит электронные версии произведений, а лишь предоставляет доступ к создаваемому пользователями каталогу ссылок на торрент-файлы, которые содержат только списки хеш-сумм

[Профиль] [ЛС]
Показать сообщения:    
Ответить на тему

Текущее время: Сегодня 08:41

Часовой пояс: GMT + 4



Вы не можете начинать темы
Вы не можете отвечать на сообщения
Вы не можете редактировать свои сообщения
Вы не можете удалять свои сообщения
Вы не можете голосовать в опросах
Вы не можете прикреплять файлы к сообщениям
Вы не можете скачивать файлы