Перед самым рассветом / Just Before Dawn (Джефф Либерман / Jeff Lieberman) [1981, США, ужасы, триллер, BDRip 720p] VO (Васильев) + Original Eng

Ответить на тему
 
Автор Сообщение

user ®

Стаж: 7 лет 7 месяцев

Сообщений: 20008

Пост Пост: #1 от 24-Ноя-2013 15:30

[Цитировать]

Перед самым рассветом / Just Before Dawn
Страна: США, Oakland Productions
Жанр: Ужасы, триллер
Год выпуска: 1981
Продолжительность: 01:30:34
Перевод: Одноголосый закадровый - Андрей Васильев
Cубтитры: нет
Оригинальная аудиодорожка: английский
Режиссер: Джефф Либерман / Jeff Lieberman
В ролях: Джордж Кеннеди, Майк Келлин, Крис Леммон, Грегг Генри, Дебора Бенсон, Ральф Сеймур, Кэти Пауэлл, Джон Хансейкер, Чарльз Бартлетт, Джейми Роуз
Описание: Группа молодых людей в количестве пяти человек отправляется путешествовать по горам да по скалам. Местный шериф отговаривает их от этой «неудачной» затеи, но молодежь, естественно, не послушалась. И как всегда бывает потом очень об этом пожалела. В лесу обитало двое жутких здоровенных брата-близнеца, вооруженных мачете…

Доп. информация: Полная синхронизация русского звука по всей шкале времени!
Сэмпл: http://multi-up.com/926256
Качество видео: BDRip 720p
Формат видео: MKV
Видео: MPEG-4 AVC, 5392 Кбит/с, 1280x720, 23.976 Кадр/с
Аудио 1: Русский (AC3, 2 ch, 192 Кбит/c, 48,0 КГц)
Аудио 2: Английский (AC3, 2 ch, 640 Кбит/c, 48,0 КГц)

MediaInfo

Формат : Matroska
Версия формата : Version 1
Размер файла : 4,02 Гбайт
Продолжительность : 1 ч. 30 м.
Общий поток : 6350 Кбит/сек
Название фильма : Перед самым рассветом / Just Before Dawn (1981) BDRip 720p
Дата кодирования : UTC 2013-11-23 23:36:29
Программа кодирования : mkvmerge v2.3.0 ('Freak U') built on Sep 8 2008 18:32:16
Библиотека кодирования : libebml v0.7.7 + libmatroska v0.8.1
Видео
Идентификатор : 1
Формат : AVC
Формат/Информация : Advanced Video Codec
Профиль формата : High@L4.1
Параметр CABAC формата : Да
Параметр ReFrames формата : 5 кадров
Идентификатор кодека : V_MPEG4/ISO/AVC
Продолжительность : 1 ч. 30 м.
Битрейт : 5392 Кбит/сек
Ширина : 1280 пикселей
Высота : 720 пикселей
Соотношение сторон : 16:9
Режим частоты кадров : Постоянный
Частота кадров : 23,976 кадра/сек
Цветовое пространство : YUV
Субдискретизация насыщенности : 4:2:0
Битовая глубина : 8 бит
Тип развёртки : Прогрессивная
Бит/(Пиксели*Кадры) : 0.244
Размер потока : 3,41 Гбайт (85%)
Язык : English
Default : Да
Forced : Нет
Аудио #1
Идентификатор : 2
Формат : AC-3
Формат/Информация : Audio Coding 3
Расширение режима : CM (complete main)
Параметр Endianness формата : Big
Идентификатор кодека : A_AC3
Продолжительность : 1 ч. 30 м.
Вид битрейта : Постоянный
Битрейт : 192 Кбит/сек
Каналы : 2 канала
Расположение каналов : Front: L R
Частота : 48,0 КГц
Битовая глубина : 16 бит
Метод сжатия : С потерями
Размер потока : 124 Мбайт (3%)
Язык : Russian
Default : Да
Forced : Нет
Аудио #2
Идентификатор : 3
Формат : AC-3
Формат/Информация : Audio Coding 3
Расширение режима : CM (complete main)
Параметр Endianness формата : Big
Идентификатор кодека : A_AC3
Продолжительность : 1 ч. 30 м.
Вид битрейта : Постоянный
Битрейт : 640 Кбит/сек
Каналы : 2 канала
Расположение каналов : Front: L R
Частота : 48,0 КГц
Битовая глубина : 16 бит
Метод сжатия : С потерями
Размер потока : 415 Мбайт (10%)
Язык : English
Default : Нет
Forced : Нет
Меню
00:00:00.000 : en:00:00:00.000
00:10:00.600 : en:00:10:00.600
00:20:01.200 : en:00:20:01.200
00:30:01.800 : en:00:30:01.800
00:40:02.400 : en:00:40:02.400
00:50:03.000 : en:00:50:03.000
01:00:03.600 : en:01:00:03.600
01:10:04.200 : en:01:10:04.200
01:20:04.800 : en:01:20:04.800
01:30:05.400 : en:01:30:05.400

Скриншоты


Скачать

Скачать торрент!

Как скачивать? · Что такое торрент? · Рейтинг и ограничения

Сайт не распространяет и не хранит электронные версии произведений, а лишь предоставляет доступ к создаваемому пользователями каталогу ссылок на торрент-файлы, которые содержат только списки хеш-сумм

[Профиль] [ЛС]
Показать сообщения:    
Ответить на тему

Текущее время: Сегодня 10:55

Часовой пояс: GMT + 4



Вы не можете начинать темы
Вы не можете отвечать на сообщения
Вы не можете редактировать свои сообщения
Вы не можете удалять свои сообщения
Вы не можете голосовать в опросах
Вы не можете прикреплять файлы к сообщениям
Вы не можете скачивать файлы