Идеальное убийство (Андрей Хрулев) [2013, Детектив, DVB]

Ответить на тему
 
Автор Сообщение

user ®

Стаж: 7 лет 7 месяцев

Сообщений: 20008

Пост Пост: #1 от 24-Ноя-2013 03:45

[Цитировать]

Идеальное убийство
Жанр: Детектив
Год выпуска: 2013
Продолжительность: 01:25:11
Субтитры: Украинские (На черной полоске)
Режиссёр: Андрей Хрулев
В ролях: Валерий Николаев, Светлана Иванова, Антонина Дивина, Антон Яковлев (III), Алексей Лонгин, Александр Горелов (II)
Описание: Ольга хотела быть счастливой. И у ее счастья есть совершенно четкие определения: успешный муж, полный достаток в доме, дорогая одежда, возможность путешествовать и ни от кого не зависеть. В ее детском доме все было по-другому и его воспитанникам оставалось только мечтать. Каждый о своем, а ей уже давно удалось вывести свою формулу счастья. Она стремилась к нему, и она его получила...
Известный адвокат Сергей Арзамасов берется за бракоразводное дело Ольги Лавровой, которая ежедневно подвергается насилию со стороны своего супруга Игоря и которую тот жестоко избивает. И первый раз в жизни он идет вопреки сложившимся этическим и профессиональным принципам, бросается в водоворот своих желаний. Она ведь так интересна, так многогранна и беззащитна.
Их бурный роман вспыхивает как пламя, которое уже не загасить. Однажды любовников застает муж Ольги, и между ним и Сергеем завязывается драка. Пытаясь защитить Арзамасова, Ольга убивает мужа. Теперь Сергею предстоит защищать Ольгу в суде.
Доп. информация: Выпущено: StarMedia, Телекомпания НТВ-Релиз группы:: -Сэмпл: http://multi-up.com/926229
Качество видео: DVB
Формат видео: MPEG-2
Видео: MPEG2 Video, 720x576 (4:3), 25.00fps, ~4472 Kbps, 0.431 bit/pixel
Аудио: MPEG Audio, 48000Hz, 2 ch, 192 Кбит/сек

MediaInfo

Общее
Полное имя : R:\Сериалы\Идеальное убийство (2013)\Идеальное убийство DVB.mpg
Формат : MPEG-PS
Размер файла : 2,83 Гбайт
Продолжительность : 1 ч. 25 м.
Режим общего битрейта : Переменный
Общий поток : 4758 Кбит/сек
Библиотека кодирования : (c) 1998-2010 Womble Multimedia, Inc. / MPEG Video Wizard DVD 5.0.0.114 (01/2010) / Nov 13 2010
Видео
Идентификатор : 224 (0xE0)
Формат : MPEG Video
Версия формата : Version 2
Профиль формата : Main@Main
Параметр BVOP формата : Да
Параметр матрицы формата : Выборочная
Параметр GOP формата : Variable
Продолжительность : 1 ч. 25 м.
Вид битрейта : Переменный
Битрейт : 4472 Кбит/сек
Максимальный битрейт : 15,0 Мбит/сек
Ширина : 720 пикселей
Высота : 576 пикселей
Соотношение сторон : 4:3
Частота кадров : 25,000 кадров/сек
Стандарт вещания : PAL
Цветовое пространство : YUV
Субдискретизация насыщенности : 4:2:0
Битовая глубина : 8 бит
Тип развёртки : Чересстрочная
Порядок развёртки : Верхнее поле первое
Метод сжатия : С потерями
Бит/(Пиксели*Кадры) : 0.431
TimeCode_FirstFrame : 00:00:00:00
TimeCode_Source : Group of pictures header
Размер потока : 2,66 Гбайт (94%)
Библиотека кодирования : (c) 1998-2010 Womble Multimedia, Inc. / MPEG Video Wizard DVD 5.0.0.114 (01/2010) / Nov 13 2010
Аудио
Идентификатор : 192 (0xC0)
Формат : MPEG Audio
Версия формата : Version 1
Профиль формата : Layer 2
Продолжительность : 1 ч. 25 м.
Вид битрейта : Постоянный
Битрейт : 192 Кбит/сек
Каналы : 1 канал
Частота : 48,0 КГц
Метод сжатия : С потерями
Размер потока : 117 Мбайт (4%)
Меню

Скриншот c названием фильма

Скриншоты

Скачать

Скачать торрент!

Как скачивать? · Что такое торрент? · Рейтинг и ограничения

Сайт не распространяет и не хранит электронные версии произведений, а лишь предоставляет доступ к создаваемому пользователями каталогу ссылок на торрент-файлы, которые содержат только списки хеш-сумм

[Профиль] [ЛС]
Показать сообщения:    
Ответить на тему

Текущее время: Сегодня 02:16

Часовой пояс: GMT + 4



Вы не можете начинать темы
Вы не можете отвечать на сообщения
Вы не можете редактировать свои сообщения
Вы не можете удалять свои сообщения
Вы не можете голосовать в опросах
Вы не можете прикреплять файлы к сообщениям
Вы не можете скачивать файлы