Киллер / Представитель компании / Слуга компании / A Company Man / Hoi-sa-won (Лим Сан Юн / Lim Sang Yoon) [2012, Южная Корея, драма, криминал, боевик, HDTVRip-AVC] DVO (ФСГ "Альянс") + DVO (GREEN TEA)

Ответить на тему
 
Автор Сообщение

user ®

Стаж: 11 лет

Сообщений: 15151

Пост Пост: #1 от 23-Ноя-2013 09:30

[Цитировать]

Киллер / Представитель компании / Слуга компании / A Company Man / Hoi-sa-won
Страна: Южная Корея
Жанр: драма, криминал, боевик
Год выпуска: 2012
Продолжительность: 1:36:31
Перевод 1: Любительский (двухголосый закадровый) Ворон и Sandairina / ФСГ "Альянс"
Перевод 2: Любительский (двухголосый закадровый) Виктор Ерёменко, Ольга Гринтиева / GREEN TEA
Cубтитры: русские
Оригинальная аудиодорожка: Корейский
Режиссер: Лим Сан Юн / Lim Sang Yoon
В ролях: Со Чжи Соп, Ли Ми Ён, Квак До Вон, Ким Дон Джун, Ли Кён Ён, Ю Ха Бок
Описание: Хьён-до — с виду представитель респектабельной компании по торговле металлом. Никто и не подозревает, что эта компания скрывает команду наемных убийц, убирающих, неугодных бизнесменам, людей. Для выполнения грязной работы, компания использует подёнщиков, которых убивают при первой же оплошности. Это и должно было произойти с Хуном. Проникшись жалостью, его последнюю просьбу (передать накопленные деньги его семье) соглашается выполнить Хьён-до, не думая о том, что жалость в его работе приравнена к смерти. Столкнувшись с добрыми человеческими отношениями семьи, которая приняла его как своего, он всеми силами пытается не обмануть это доверие и защитить тех, кто так внезапно пробудил в нем остатки человечности и стал дорог…
Сэмпл: http://multi-up.com/925846
Качество видео: HDTVRip
Формат видео: MKV
Видео: AVC, 720х320, 2,25:1, 23,976 кадра/сек, 2140 Кбит/сек
Аудио 1: AC-3, 48,0 КГц, 448 Кбит/сек, 6 каналов, Front: L C R, Side: L R, LFE (русский, ФСГ "Альянс", Переводчик: Selena Min, Редактор: Daleko)
Аудио 2: AC-3, 48,0 КГц, 192 Кбит/сек, 2 канала, Front: L R (русский, GREEN TEA, Перевод Эльза Нордж)
Аудио 3: AC-3, 48,0 КГц, 448 Кбит/сек, 6 каналов, Front: L C R, Side: L R, LFE (корейский)
Формат субтитров: softsub (SSA/ASS)

Альтернативные постеры


MediaInfo

Формат : Matroska
Версия формата : Version 4 / Version 2
Размер файла : 2,18 Гбайт
Продолжительность : 1 ч. 36 м.
Общий поток : 3231 Кбит/сек
Дата кодирования : UTC 2013-11-18 21:59:06
Программа кодирования : mkvmerge v6.1.0 ('Old Devil') built on Mar 4 2013 09:10:42
Библиотека кодирования : libebml v1.3.0 + libmatroska v1.4.0
Видео
Идентификатор : 1
Формат : AVC
Формат/Информация : Advanced Video Codec
Профиль формата : High@L3.0
Параметр CABAC формата : Да
Параметр ReFrames формата : 4 кадра
Идентификатор кодека : V_MPEG4/ISO/AVC
Продолжительность : 1 ч. 36 м.
Битрейт : 2140 Кбит/сек
Ширина : 720 пикселей
Высота : 320 пикселей
Соотношение сторон : 2,25:1
Режим частоты кадров : Постоянный
Частота кадров : 23,976 кадра/сек
Цветовое пространство : YUV
Субдискретизация насыщенности : 4:2:0
Битовая глубина : 8 бит
Тип развёртки : Прогрессивная
Бит/(Пиксели*Кадры) : 0.387
Размер потока : 1,40 Гбайт (64%)
Библиотека кодирования : x264 core 129 r2245 bc13772
Настройки программы : cabac=1 / ref=3 / deblock=1:-2:-1 / analyse=0x3:0x113 / me=hex / subme=7 / psy=1 / psy_rd=1.00:0.10 / mixed_ref=1 / me_range=16 / chroma_me=1 / trellis=1 / 8x8dct=1 / cqm=0 / deadzone=21,11 / fast_pskip=1 / chroma_qp_offset=-3 / threads=3 / lookahead_threads=1 / sliced_threads=0 / nr=0 / decimate=0 / interlaced=0 / bluray_compat=0 / constrained_intra=0 / bframes=3 / b_pyramid=2 / b_adapt=1 / b_bias=0 / direct=1 / weightb=1 / open_gop=0 / weightp=2 / keyint=240 / keyint_min=23 / scenecut=40 / intra_refresh=0 / rc=2pass / mbtree=0 / bitrate=2140 / ratetol=1.0 / qcomp=0.65 / qpmin=10 / qpmax=51 / qpstep=4 / cplxblur=20.0 / qblur=0.5 / ip_ratio=1.40 / pb_ratio=1.30 / aq=1:1.00
Язык : Korean
Default : Да
Forced : Нет
Коэффициенты матрицы : BT.709
Аудио #1
Идентификатор : 2
Формат : AC-3
Формат/Информация : Audio Coding 3
Расширение режима : CM (complete main)
Параметр Endianness формата : Big
Идентификатор кодека : A_AC3
Продолжительность : 1 ч. 36 м.
Вид битрейта : Постоянный
Битрейт : 448 Кбит/сек
Каналы : 6 каналов
Расположение каналов : Front: L C R, Side: L R, LFE
Частота : 48,0 КГц
Битовая глубина : 16 бит
Метод сжатия : С потерями
Размер потока : 309 Мбайт (14%)
Заголовок : Ворон и Sandairina
Язык : Russian
Default : Да
Forced : Нет
Аудио #2
Идентификатор : 3
Формат : AC-3
Формат/Информация : Audio Coding 3
Расширение режима : CM (complete main)
Параметр Endianness формата : Big
Идентификатор кодека : A_AC3
Продолжительность : 1 ч. 36 м.
Вид битрейта : Постоянный
Битрейт : 192 Кбит/сек
Каналы : 2 канала
Расположение каналов : Front: L R
Частота : 48,0 КГц
Битовая глубина : 16 бит
Метод сжатия : С потерями
Размер потока : 133 Мбайт (6%)
Заголовок : Green_Tea
Язык : Russian
Default : Нет
Forced : Нет
Аудио #3
Идентификатор : 4
Формат : AC-3
Формат/Информация : Audio Coding 3
Расширение режима : CM (complete main)
Параметр Endianness формата : Big
Идентификатор кодека : A_AC3
Продолжительность : 1 ч. 36 м.
Вид битрейта : Постоянный
Битрейт : 448 Кбит/сек
Каналы : 6 каналов
Расположение каналов : Front: L C R, Side: L R, LFE
Частота : 48,0 КГц
Битовая глубина : 16 бит
Метод сжатия : С потерями
Размер потока : 309 Мбайт (14%)
Заголовок : Original
Язык : Korean
Default : Нет
Forced : Нет
Текст
Идентификатор : 5
Формат : ASS
Идентификатор кодека : S_TEXT/ASS
Идентификатор кодека/Информация : Advanced Sub Station Alpha
Метод сжатия : Без потерь
Заголовок : Перевод - Selena Min, Редактура - Daleko [Фансаб-группа Альянс]
Язык : Russian
Default : Да
Forced : Нет

Скриншот c названием фильма

Скачать

Скачать торрент! Киллер / Представитель компании / Слуга компании / A Company Man / Hoi-sa-won (Лим Сан Юн / Lim Sang Yoon) [2012, Южная Корея, драма, криминал, боевик, HDTVRip-AVC] DVO (ФСГ "Альянс") + DVO (GREEN TEA)

Как скачивать? · Что такое торрент? · Рейтинг и ограничения

Сайт не распространяет и не хранит электронные версии произведений, а лишь предоставляет доступ к создаваемому пользователями каталогу ссылок на торрент-файлы, которые содержат только списки хеш-сумм

[Профиль] [ЛС]
Показать сообщения:    
Ответить на тему

Текущее время: Сегодня 11:05

Часовой пояс: GMT + 4



Вы не можете начинать темы
Вы не можете отвечать на сообщения
Вы не можете редактировать свои сообщения
Вы не можете удалять свои сообщения
Вы не можете голосовать в опросах
Вы не можете прикреплять файлы к сообщениям
Вы не можете скачивать файлы