Школьница против зомби / Schoolgirl Apocalypse (Жон Кайренс / John Cairns) [2011, Япония, ужасы, DVDRip] DVO + Sub Eng

Ответить на тему
 
Автор Сообщение

user ®

Стаж: 13 лет

Сообщений: 15071

Пост Пост: #1 от 22-Ноя-2013 21:35

[Цитировать]

Школьница против зомби / Schoolgirl Apocalypse
Страна: Япония
Жанр: ужасы
Год выпуска: 2011
Продолжительность: 01:08:55
Перевод: Любительский (двухголосый закадровый)[den904 & DeadSno]- перевод на русский язык [МЕГАПЫХАРЬ]
Cубтитры: английские (вшитые)
Режиссер: Жон Кайренс / John Cairns
В ролях: Рино Хига, Макс Маскензи, Асами Мизукава, Каору Нашида
Описание: Сакура - типичная японская школьница, живущая в небольшом городишке, затерявшемся в горах. Однажды в школе, на уроке стрельбы из лука, ее учитель и одноклассники начали вести себя странно. Вскоре все мужчины в городе превратились в агрессивных зомби и стали нападать на женщин. Сакура убегает и пытается выяснить причину произошедшего. По пути она встречает женщину с зараженным сыном. Женщина рассказывает ей то, что знает, но этого недостаточно для понимания. Какова же реальная причина творящегося безумия?
Семпл смотреть на Ютубе_
Сэмпл: http://multi-up.com/925716

Качество видео: DVDRip
Формат видео: AVI
Видео: 720x480 (1.50:1), 25 fps, XviD MPEG-4 ~1249 kbps avg, 0.14 bit/pixel
Аудио: 44.100 kHz, MPEG Layer 3, 2 ch, ~192.00 kbps avg

MediaInfo

General
Complete name : I:\Запас\Заклятие\Скулгёрлз\Schoolgirl.Apocalypse.2011.avi
Format : AVI
Format/Info : Audio Video Interleave
File size : 717 MiB
Duration : 1h 8mn
Overall bit rate : 1 454 Kbps
Writing application : Lavf52.39.1
Video
ID : 0
Format : xvid
Codec ID : xvid
Duration : 1h 8mn
Bit rate : 1 250 Kbps
Width : 720 pixels
Height : 480 pixels
Display aspect ratio : 3:2
Frame rate : 25.000 fps
Standard : NTSC
Bits/(Pixel*Frame) : 0.145
Stream size : 616 MiB (86%)
Audio
ID : 1
Format : MPEG Audio
Format version : Version 1
Format profile : Layer 3
Mode : Joint stereo
Mode extension : MS Stereo
Codec ID : 55
Codec ID/Hint : MP3
Duration : 1h 8mn
Bit rate mode : Constant
Bit rate : 192 Kbps
Channel(s) : 2 channels
Sampling rate : 44.1 KHz
Compression mode : Lossy
Stream size : 94.7 MiB (13%)
Alignment : Aligned on interleaves
Interleave, duration : 26 ms (0.65 video frame)
Interleave, preload duration : 26 ms

Скриншот c названием фильма

Скриншоты




Релиз от:
Скачать

Скачать торрент! Школьница против зомби / Schoolgirl Apocalypse (Жон Кайренс / John Cairns) [2011, Япония, ужасы, DVDRip] DVO + Sub Eng

Как скачивать? · Что такое торрент? · Рейтинг и ограничения

Сайт не распространяет и не хранит электронные версии произведений, а лишь предоставляет доступ к создаваемому пользователями каталогу ссылок на торрент-файлы, которые содержат только списки хеш-сумм

[Профиль] [ЛС]
Показать сообщения:    
Ответить на тему

Текущее время: Сегодня 21:30

Часовой пояс: GMT + 4



Вы не можете начинать темы
Вы не можете отвечать на сообщения
Вы не можете редактировать свои сообщения
Вы не можете удалять свои сообщения
Вы не можете голосовать в опросах
Вы не можете прикреплять файлы к сообщениям
Вы не можете скачивать файлы