Университетский вампир / Vamp U (Мэтт Есперсен / Matt Jespersen, Маклейн Нельсон / Maclain Nelson) [2013, США, ужасы, боевик, комедия, WEB-DLRip] MVO

Ответить на тему
 
Автор Сообщение

user ®

Стаж: 7 лет 7 месяцев

Сообщений: 20008

Пост Пост: #1 от 22-Ноя-2013 12:05

[Цитировать]

Университетский вампирVamp U- Страна: США
Жанр: ужасы, боевик, комедия
Год выпуска: 2013
Продолжительность: 01:35:57-Перевод: Профессиональный (многоголосый, закадровый) [НТВ+]
Субтитры: нет
Режиссер: Мэтт Есперсен / Matt Jespersen, Маклейн Нельсон / Maclain Nelson
В ролях: Джули Гонсало, Адам Джонсон, Алексис Нэп, Гэри Коул, Маклейн Нельсон, Мэтт Маттсон, Барт Джонсон, Клэр Нидерпрюэм, Фрэнки Леванджи, Джейк Ван Вагонер, Ренни Грэймс, Джейсон Целая-Описание: 300 лет назад вампир Уэйн Грецки утратил способность «вампирствовать» после потери любви всей жизни. В наши дни он коллежский профессор, однако вампирическое проклятие продолжает преследовать его.-

-

Доп. Информация

Сценарий: Мэтт Есперсен / Matt Jespersen, Маклейн Нельсон / Maclain Nelson
Продюсер: Маклейн Нельсон / Maclain Nelson, Брайнтон Брайан / Brinton Bryan, Т.Р. Гурли / T.R. Gourley, Брэд Джонсон / Brad Johnson, Саад Аль-Энези / Saad Al-Enezi
Оператор: Брэдфорд Уайтакер / Bradford Whitaker
Композитор: Роберт Аллен Эллиотт / Robert Allen Elliott
Мировая премьера: 5 марта 2013
-Качество: WEB-DLRip
Контейнер: AVI
Видео: XviD, 720x400 (16:9), 1837 kbps, 23,976 fps, 0,266 bpp
Аудио: AC3 / 2.0 / 48 kHz / 192 kbps / 16 bit-

Media Info

General
Complete name : G:\Vamp.U.2013.P.WEBDLRip_1400Mb.avi
Format : AVI
Format/Info : Audio Video Interleave
File size : 1.37 GiB
Duration : 1h 35mn
Overall bit rate : 2 039 Kbps
Writing application : VirtualDubMod 1.5.10.3 | www.virtualdub-fr.org || (build 2550/release)
Writing library : VirtualDubMod build 2550/release
Video
ID : 0
Format : MPEG-4 Visual
Format profile : Advanced Simple@L5
Format settings, BVOP : 1
Format settings, QPel : No
Format settings, GMC : No warppoints
Format settings, Matrix : Custom
Codec ID : XVID
Codec ID/Hint : XviD
Duration : 1h 35mn
Bit rate : 1 838 Kbps
Width : 720 pixels
Height : 400 pixels
Display aspect ratio : 16:9
Frame rate : 23.976 fps
Color space : YUV
Chroma subsampling : 4:2:0
Bit depth : 8 bits
Scan type : Progressive
Compression mode : Lossy
Bits/(Pixel*Frame) : 0.266
Stream size : 1.23 GiB (90%)
Writing library : XviD 1.2.1 (UTC 2008-12-04)
Audio
ID : 1
Format : AC-3
Format/Info : Audio Coding 3
Mode extension : CM (complete main)
Codec ID : 2000
Duration : 1h 35mn
Bit rate mode : Constant
Bit rate : 192 Kbps
Channel(s) : 2 channels
Channel positions : Front: L R
Sampling rate : 48.0 KHz
Bit depth : 16 bits
Compression mode : Lossy
Stream size : 132 MiB (9%)
Alignment : Split accross interleaves
Interleave, duration : 42 ms (1.00 video frame)
Interleave, preload duration : 500 ms

Скриншот с названием фильма

Скриншоты

Скачать

Скачать торрент!

Как скачивать? · Что такое торрент? · Рейтинг и ограничения

Сайт не распространяет и не хранит электронные версии произведений, а лишь предоставляет доступ к создаваемому пользователями каталогу ссылок на торрент-файлы, которые содержат только списки хеш-сумм

[Профиль] [ЛС]
Показать сообщения:    
Ответить на тему

Текущее время: Сегодня 00:43

Часовой пояс: GMT + 4



Вы не можете начинать темы
Вы не можете отвечать на сообщения
Вы не можете редактировать свои сообщения
Вы не можете удалять свои сообщения
Вы не можете голосовать в опросах
Вы не можете прикреплять файлы к сообщениям
Вы не можете скачивать файлы