Евротур / EuroTrip (Джефф Шеффер, Алек Берг, Дэвид Мэндел) [2004, США, Комедия, приключения, BDRip 720p] Dub + Sub Rus, Eng + Original Eng

Ответить на тему
 
Автор Сообщение

user ®

Стаж: 7 лет 7 месяцев

Сообщений: 20008

Пост Пост: #1 от 20-Ноя-2013 23:30

[Цитировать]

Евротур / EuroTrip
Страна: США
Студия: DreamWorks
Жанр: Комедия, приключения
Год выпуска: 2004
Продолжительность: 01:30:05
Перевод: Профессиональный (дублированный)
Cубтитры: русские, английские
Оригинальная аудиодорожка: английский
Режиссер: Джефф Шеффер / Jeff Schaffer, Алек Берг / Alec Berg, Дэвид Мэндел / David Mandel
В ролях: Скотт Мехловиц, Джекоб Питтс, Мишель Трахтенберг, Трэвис Уэстер, Джессика Бёрс, Кристин Кройк, Кэти Мейлс, Ниел Исхаков, Мэтт Дэймон, Винни Джонс, Пётр Якл, Жан-Поль Мано, Патрик Рэполд, Фред Армизен, Люси Лоулесс, Гоу Гоу Жан Мишель Френсис, Яна Палласке, Дидрих Бадер, Джоэль Кирби, Патрик Мэлахайд, Кристофер Бейрд, Николас Дж. М. Клутман, Брюс Фулфорд, Молли Шод, Джакки Дегг, Ленка Вомосилова, Андреа Стюарт, Пол Олдхэм, Майк Макгуффи, Джон Комер, Джефф Смит, Майкл Челла, Дэвид Фишер, Кристиан Данкли Кларк, Якуб Когак, Эрик Москосо Вертиз, Лабасс Кануте
Описание: Скотт Томас завел себе друга по переписке из Германии из самых практичных соображений. Он хотел получить отличную оценку по немецкому, а некто с именем Мик согласился перевести его домашние работы. Но вскоре выяснилось, что Мик — обворожительная блондинка, которая не прочь увидеть своего американского друга вживую. После выпускных экзаменов Скотт прихватывает нескольких близких друзей и летит в Европу. Впереди его ждет увлекательное, хоть и беспокойное путешествие из Лондона в Берлин через Париж и Амстердам…
Тип релиза: BDRip 720p
Контейнер: MKV
Видео: MPEG-4 AVC, 8500 Кбит/с, 1280x720, 23.976 кадр/с
Аудио: Русский (DTS, 6 ch, 768 Кбит/с) / Дублированный
Аудио 2: Английский (DTS, 6 ch, 1509 Кбит/с)

MediaInfo

General
Unique ID : 205819507115300857156465706699546066485 (0x9AD7652B1F34CD119C46283686867E35)
Complete name : D:\Documents\Мои видеозаписи\Evrotur.2004.BDRip.(720p)-MediaClub.mkv
Format : Matroska
Format version : Version 2
File size : 6.77 GiB
Duration : 1h 30mn
Overall bit rate : 10.8 Mbps
Movie name : -=MediaClub-kaspr=-
Encoded date : UTC 2013-11-19 09:39:14
Writing application : mkvmerge v4.2.0 ('No Talking') сборка от Jul 28 2010 18:38:23
Writing library : libebml v1.0.0 + libmatroska v1.0.0
Video
ID : 1
Format : AVC
Format/Info : Advanced Video Codec
Format profile : High@L4.1
Format settings, CABAC : Yes
Format settings, ReFrames : 8 frames
Muxing mode : Header stripping
Codec ID : V_MPEG4/ISO/AVC
Duration : 1h 30mn
Bit rate : 8 500 Kbps
Width : 1 280 pixels
Height : 720 pixels
Display aspect ratio : 16:9
Frame rate mode : Constant
Frame rate : 23.976 fps
Color space : YUV
Chroma subsampling : 4:2:0
Bit depth : 8 bits
Scan type : Progressive
Bits/(Pixel*Frame) : 0.385
Stream size : 5.21 GiB (77%)
Title : -=MediaClub-kaspr=-
Writing library : x264 core 130 r2273 b3065e6
Encoding settings : cabac=1 / ref=8 / deblock=1:-3:-3 / analyse=0x3:0x133 / me=umh / subme=11 / psy=1 / psy_rd=1.00:0.20 / mixed_ref=1 / me_range=48 / chroma_me=1 / trellis=2 / 8x8dct=1 / cqm=0 / deadzone=21,11 / fast_pskip=0 / chroma_qp_offset=-3 / threads=12 / lookahead_threads=2 / sliced_threads=0 / nr=0 / decimate=0 / interlaced=0 / bluray_compat=0 / constrained_intra=0 / bframes=8 / b_pyramid=2 / b_adapt=2 / b_bias=0 / direct=3 / weightb=1 / open_gop=0 / weightp=2 / keyint=240 / keyint_min=23 / scenecut=40 / intra_refresh=0 / rc=2pass / mbtree=0 / bitrate=8500 / ratetol=1.0 / qcomp=0.60 / qpmin=0 / qpmax=69 / qpstep=4 / cplxblur=20.0 / qblur=0.5 / ip_ratio=1.40 / pb_ratio=1.30 / aq=1:1.00
Default : Yes
Forced : Yes
Audio #1
ID : 2
Format : DTS
Format/Info : Digital Theater Systems
Mode : 16
Format settings, Endianness : Big
Muxing mode : Header stripping
Codec ID : A_DTS
Duration : 1h 30mn
Bit rate mode : Constant
Bit rate : 755 Kbps
Channel count : 6 channels
Channel positions : Front: L C R, Side: L R, LFE
Sampling rate : 48.0 KHz
Bit depth : 24 bits
Compression mode : Lossy
Delay relative to video : 11ms
Stream size : 486 MiB (7%)
Title : DUB-DTS
Language : Russian
Default : No
Forced : No
Audio #2
ID : 3
Format : DTS
Format/Info : Digital Theater Systems
Mode : 16
Format settings, Endianness : Big
Muxing mode : Header stripping
Codec ID : A_DTS
Duration : 1h 30mn
Bit rate mode : Constant
Bit rate : 1 509 Kbps
Channel count : 6 channels
Channel positions : Front: L C R, Side: L R, LFE
Sampling rate : 48.0 KHz
Bit depth : 24 bits
Compression mode : Lossy
Delay relative to video : 11ms
Stream size : 972 MiB (14%)
Language : English
Default : No
Forced : No
Text #1
ID : 4
Format : UTF-8
Codec ID : S_TEXT/UTF8
Codec ID/Info : UTF-8 Plain Text
Language : Russian
Default : No
Forced : No
Text #2
ID : 5
Format : UTF-8
Codec ID : S_TEXT/UTF8
Codec ID/Info : UTF-8 Plain Text
Language : English
Default : No
Forced : No
Menu
00:00:00.000 : :Chapter 01
00:03:00.388 : :Chapter 02
00:06:31.766 : :Chapter 03
00:08:28.883 : :Chapter 04
00:17:49.526 : :Chapter 05
00:20:03.285 : :Chapter 06
00:21:13.438 : :Chapter 07
00:27:11.546 : :Chapter 08
00:34:57.845 : :Chapter 09
00:39:05.259 : :Chapter 10
00:42:43.060 : :Chapter 11
00:45:24.847 : :Chapter 12
00:54:19.005 : :Chapter 13
00:59:43.663 : :Chapter 14
01:05:05.526 : :Chapter 15
01:09:15.818 : :Chapter 16
01:14:42.102 : :Chapter 17
01:18:02.260 : :Chapter 18
01:22:44.417 : :Chapter 19
01:25:07.352 : :Chapter 20

Скриншоты




Скачать

Скачать торрент!

Как скачивать? · Что такое торрент? · Рейтинг и ограничения

Сайт не распространяет и не хранит электронные версии произведений, а лишь предоставляет доступ к создаваемому пользователями каталогу ссылок на торрент-файлы, которые содержат только списки хеш-сумм

[Профиль] [ЛС]
Показать сообщения:    
Ответить на тему

Текущее время: Сегодня 02:04

Часовой пояс: GMT + 4



Вы не можете начинать темы
Вы не можете отвечать на сообщения
Вы не можете редактировать свои сообщения
Вы не можете удалять свои сообщения
Вы не можете голосовать в опросах
Вы не можете прикреплять файлы к сообщениям
Вы не можете скачивать файлы