Правосудие одиночки / Хороший полицейский / One Good Cop (Хейвуд Гулд / Heywood Gould) [1991, США, боевик, триллер, драма, BDRemux 1080p] Dub + Original eng + Sub eng

Ответить на тему
 
Автор Сообщение

user ®

Стаж: 7 лет 7 месяцев

Сообщений: 20008

Пост Пост: #1 от 20-Ноя-2013 23:30

[Цитировать]

Правосудие одиночки / One Good Cop
Страна: США
Жанр: боевик, триллер, драма
Год выпуска: 1991
Продолжительность: 01:44:38
Перевод: Профессиональный (дублированный) | СВ-Дубль по заказу ВГТРК
Cубтитры: английские
Оригинальная аудиодорожка: английский
Режиссер: Хейвуд Гулд / Heywood Gould
В ролях: Майкл Китон, Рене Руссо, Энтони ЛаПалья, Кевин Конуэй, Рейчел Тикотин, Тони Плана, Бенджамин Брэтт, Чарлэйн Вудард, Грейс Джонстон
Описание: Друг и коллега Арти погиб во время спецоперации, и служитель закона решает взять под свою опеку троих детей убитого друга. Но его семейный бюджет не был приспособлен для таких расходов
Тогда Арти решает взять деньги у тех, кто их не заслуживает: первым на прицеле оказался крупный наркодилер. И если можно уйти от правосудия в зале суда, то от правосудия полицейского не уйдет никто...

Доп. информация: звук плох, во избежания недоразумений слушаем сэмпл
За работу над дорогой благодарим Linger babe
Тип релиза: BDRemux 1080p | One Good Cop 1991 / A Stranger Among Us 1992 1080p Blu-ray AVC DTS-HD MA 2.0 @ HDBits | sample
Контейнер: MKV
Видео: MPEG-4 AVC 1920x1080 (16:9), 23.976 fps, ~18.6 Mbps
Аудио #1: Russian AC3 2ch 48kHz 192Kbps | Dub
Аудио #2: English DTS-HD MA / 2.0 / 48 kHz / 2064 kbps / 24-bit (DTS Core: 2.0 / 48 kHz / 1509 kbps / 24-bit) | Original
Формат субтитров: softsub (SRT)
Главы: есть

MediaInfo

General
Complete name : D:\...\One.Good.Cop.1991.1080p.Remux.AVC.Rus.Eng.mkv
Format : Matroska
Format version : Version 4 / Version 2
File size : 15.5 GiB
Duration : 1h 44mn
Overall bit rate mode : Variable
Overall bit rate : 21.3 Mbps
Movie name : One.Good.Cop.1991.1080p.Remux.AVC.Rus.Eng
Encoded date : UTC 2013-11-18 21:59:46
Writing application : mkvmerge v6.2.0 ('Promised Land') built on Apr 28 2013 12:22:01
Writing library : libebml v1.3.0 + libmatroska v1.4.0
Video
ID : 1
Format : AVC
Format/Info : Advanced Video Codec
Format profile : High@L4.1
Format settings, CABAC : Yes
Format settings, ReFrames : 4 frames
Format settings, GOP : M=3, N=24
Codec ID : V_MPEG4/ISO/AVC
Duration : 1h 44mn
Bit rate mode : Variable
Bit rate : 18.6 Mbps
Maximum bit rate : 25.0 Mbps
Width : 1 920 pixels
Height : 1 080 pixels
Display aspect ratio : 16:9
Frame rate mode : Constant
Frame rate : 23.976 fps
Standard : NTSC
Color space : YUV
Chroma subsampling : 4:2:0
Bit depth : 8 bits
Scan type : Progressive
Bits/(Pixel*Frame) : 0.375
Stream size : 13.6 GiB (88%)
Title : One Good Cop (1991)
Language : English
Default : Yes
Forced : No
Color primaries : BT.709
Transfer characteristics : BT.709
Matrix coefficients : BT.709
Audio #1
ID : 2
Format : AC-3
Format/Info : Audio Coding 3
Mode extension : CM (complete main)
Format settings, Endianness : Big
Codec ID : A_AC3
Duration : 1h 44mn
Bit rate mode : Constant
Bit rate : 192 Kbps
Channel(s) : 2 channels
Channel positions : Front: L R
Sampling rate : 48.0 KHz
Bit depth : 16 bits
Compression mode : Lossy
Stream size : 144 MiB (1%)
Title : Dub VGTRK
Language : Russian
Default : Yes
Forced : No
Audio #2
ID : 3
Format : DTS
Format/Info : Digital Theater Systems
Format profile : MA / Core
Codec ID : A_DTS
Duration : 1h 44mn
Bit rate mode : Variable
Bit rate : 2 014 Kbps / 1 510 Kbps
Channel(s) : 2 channels
Channel positions : Front: L R
Sampling rate : 48.0 KHz
Bit depth : 24 bits
Compression mode : Lossless / Lossy
Title : Original
Language : English
Default : No
Forced : No
Text
ID : 4
Format : UTF-8
Codec ID : S_TEXT/UTF8
Codec ID/Info : UTF-8 Plain Text
Language : English
Default : No
Forced : No
Menu
00:00:00.000 : en:00:00:00.000
00:04:33.773 : en:00:04:33.773
00:13:38.985 : en:00:13:38.985
00:27:31.817 : en:00:27:31.817
00:36:46.996 : en:00:36:46.996
00:42:49.859 : en:00:42:49.859
00:49:23.794 : en:00:49:23.794
00:59:59.888 : en:00:59:59.888
01:10:05.701 : en:01:10:05.701
01:16:27.416 : en:01:16:27.416
01:25:01.638 : en:01:25:01.638
01:39:33.593 : en:01:39:33.593

Скриншоты


Скачать

Скачать торрент!

Как скачивать? · Что такое торрент? · Рейтинг и ограничения

Сайт не распространяет и не хранит электронные версии произведений, а лишь предоставляет доступ к создаваемому пользователями каталогу ссылок на торрент-файлы, которые содержат только списки хеш-сумм

[Профиль] [ЛС]
Показать сообщения:    
Ответить на тему

Текущее время: Сегодня 08:59

Часовой пояс: GMT + 4



Вы не можете начинать темы
Вы не можете отвечать на сообщения
Вы не можете редактировать свои сообщения
Вы не можете удалять свои сообщения
Вы не можете голосовать в опросах
Вы не можете прикреплять файлы к сообщениям
Вы не можете скачивать файлы