Коллекционер 2 / The Collection (Маркус Данстэн / Marcus Dunstan) [2012, США, ужасы, боевик, триллер, BDRip 1080p] [US Transfer] Dub + VO (RussianGuy27) + VO (Daniel Jackson) + Original (Eng) + Sub (Rus, Eng)

Ответить на тему
 
Автор Сообщение

user ®

Стаж: 7 лет 7 месяцев

Сообщений: 20008

Пост Пост: #1 от 18-Ноя-2013 02:00

[Цитировать]

Коллекционер 2 / The Collection
Страна: США
Жанр: ужасы, боевик, триллер
Год выпуска: 2012
Продолжительность: 01:21:59
Перевод 1: Профессиональный (дублированный) Blu-ray
Перевод 2: Одноголосый закадровый RussianGuy27
Перевод 3: Одноголосый закадровый Daniel Jackson
Оригинальная аудиодорожка: английский
Cубтитры: русские (полные), английские (полные), английские (SDH)-Режиссер: Маркус Данстэн / Marcus Dunstan
В ролях: Джош Стюарт (Arkin), Эмма Фитцпатрик (Elena), Кристофер МакДональд (Mr. Peters), Ли Тергесен (Lucello), Тим Гриффин (Dre), Андре Ройо (Wally), Рэндолл Арчер (The Collector), Шеннон Кэйн (Paz), Брэндон Молале (Lin), Эрин Вэй (Abby), Джоанна Э. Брэдди (Missy Solomon), Майкл Нарделли (Josh), Уилльям Пельтц (Brian), Дэниэл Шарман (Basil), Джастин Мортеллити (Zack), Нави Рават (Lisa), Кортни Лорен Каммингс (Young Elena), Хизер Мот (Brian's Sexy Blond)
Описание: Бывалому медвежатнику Аркину чудесным образом удалось выбраться из ловушек, расставленных по дому загадочным маньяком Коллекционером. Аркин был уверен, что он никогда в жизни больше не встретится с Коллекциoнером, но cудьба распоряжается иначе.-СЭМПЛ
Тип релиза: BDRip 1080p
Контейнер: MKV
Видео: 1920x818p / 23.976 fps / 2.35:1 / High Profile 4.1 / AVC / ~ 10 000 Kbps
Аудио 1: DTS / 1510 Kbps / 5.1 / 48 kHz / Russian / Dub
Аудио 2: DTS / 1510 Kbps / 5.1 / 48 kHz / Russian / VO (RussianGuy27)
Аудио 3: DTS / 1510 Kbps / 5.1 / 48 kHz / Russian / VO (Daniel Jackson)
Аудио 4: DTS / 1510 Kbps / 5.1 / 48 kHz / English / original
Формат субтитров: softsub (SRT)-IMDB * КиноПоиск
ВНИМАНИЕ! Оба одноголосых перевода содержат ненормативную лексику!

MediaInfo / x264 log

General
Complete name : The.Collection.2012.BDRip.1080p.US.Dub.2VO.mkv
Format : Matroska
Format version : Version 2
File size : 9.18 GiB
Duration : 1h 21mn
Overall bit rate : 16.0 Mbps
Encoded date : UTC 2013-05-13 19:00:58
Writing application : mkvmerge v5.4.0 ('Piper') built on Mar 10 2012 13:34:39
Writing library : libebml v1.2.3 + libmatroska v1.3.0
Video
ID : 1
Format : AVC
Format/Info : Advanced Video Codec
Format profile : High@L4.1
Format settings, CABAC : Yes
Format settings, ReFrames : 5 frames
Codec ID : V_MPEG4/ISO/AVC
Duration : 1h 21mn
Bit rate : 10 000 Kbps
Width : 1 920 pixels
Height : 818 pixels
Display aspect ratio : 2.35:1
Frame rate : 23.976 fps
Color space : YUV
Chroma subsampling : 4:2:0
Bit depth : 8 bits
Scan type : Progressive
Bits/(Pixel*Frame) : 0.266
Stream size : 5.54 GiB (60%)
Title : The Collection 2012
Writing library : x264 core 122 r2184 5c85e0a
Encoding settings : cabac=1 / ref=5 / deblock=1:-3:-3 / analyse=0x3:0x113 / me=umh / subme=11 / psy=1 / psy_rd=1.10:0.00 / mixed_ref=1 / me_range=24 / chroma_me=1 / trellis=2 / 8x8dct=1 / cqm=0 / deadzone=21,11 / fast_pskip=1 / chroma_qp_offset=-2 / threads=6 / sliced_threads=0 / nr=0 / decimate=1 / interlaced=0 / bluray_compat=0 / constrained_intra=0 / bframes=9 / b_pyramid=2 / b_adapt=2 / b_bias=0 / direct=3 / weightb=1 / open_gop=0 / weightp=2 / keyint=250 / keyint_min=23 / scenecut=40 / intra_refresh=0 / rc_lookahead=60 / rc=2pass / mbtree=1 / bitrate=10000 / ratetol=1.0 / qcomp=0.60 / qpmin=0 / qpmax=69 / qpstep=4 / cplxblur=20.0 / qblur=0.5 / ip_ratio=1.40 / aq=1:0.90
Default : Yes
Forced : No
Audio #1
ID : 2
Format : DTS
Format/Info : Digital Theater Systems
Codec ID : A_DTS
Duration : 1h 21mn
Bit rate mode : Constant
Bit rate : 1 510 Kbps
Channel(s) : 6 channels
Channel positions : Front: L C R, Side: L R, LFE
Sampling rate : 48.0 KHz
Bit depth : 24 bits
Compression mode : Lossy
Stream size : 885 MiB (9%)
Title : RUS DTS 1510 Kbps 6ch Dub
Language : Russian
Default : Yes
Forced : No
Audio #2
ID : 3
Format : DTS
Format/Info : Digital Theater Systems
Codec ID : A_DTS
Duration : 1h 21mn
Bit rate mode : Constant
Bit rate : 1 510 Kbps
Channel(s) : 6 channels
Channel positions : Front: L C R, Side: L R, LFE
Sampling rate : 48.0 KHz
Bit depth : 24 bits
Compression mode : Lossy
Stream size : 885 MiB (9%)
Title : RUS DTS 1510 Kbps 6ch VO RussianGuy27
Language : Russian
Default : No
Forced : No
Audio #3
ID : 4
Format : DTS
Format/Info : Digital Theater Systems
Codec ID : A_DTS
Duration : 1h 21mn
Bit rate mode : Constant
Bit rate : 1 510 Kbps
Channel(s) : 6 channels
Channel positions : Front: L C R, Side: L R, LFE
Sampling rate : 48.0 KHz
Bit depth : 24 bits
Compression mode : Lossy
Stream size : 885 MiB (9%)
Title : RUS DTS 1510 Kbps 6ch VO Daniel Jackson
Language : Russian
Default : No
Forced : No
Audio #4
ID : 5
Format : DTS
Format/Info : Digital Theater Systems
Codec ID : A_DTS
Duration : 1h 21mn
Bit rate mode : Constant
Bit rate : 1 510 Kbps
Channel(s) : 6 channels
Channel positions : Front: L C R, Side: L R, LFE
Sampling rate : 48.0 KHz
Bit depth : 24 bits
Compression mode : Lossy
Stream size : 885 MiB (9%)
Title : ENG DTS 1510 Kbps 6ch original
Language : English
Default : No
Forced : No
Text #1
ID : 6
Format : UTF-8
Codec ID : S_TEXT/UTF8
Codec ID/Info : UTF-8 Plain Text
Title : RUS Subtitles Full
Language : Russian
Default : No
Forced : No
Text #2
ID : 7
Format : UTF-8
Codec ID : S_TEXT/UTF8
Codec ID/Info : UTF-8 Plain Text
Title : ENG Subtitles Full
Language : English
Default : No
Forced : No
Text #3
ID : 8
Format : UTF-8
Codec ID : S_TEXT/UTF8
Codec ID/Info : UTF-8 Plain Text
Title : ENG Subtitles SDH
Language : English
Default : No
Forced : No
Menu
00:00:00.000 : :Chapter 01
00:09:29.485 : :Chapter 02
00:15:30.471 : :Chapter 03
00:24:00.856 : :Chapter 04
00:33:32.927 : :Chapter 05
00:42:16.742 : :Chapter 06
00:49:19.998 : :Chapter 07
00:54:59.421 : :Chapter 08
01:01:23.346 : :Chapter 09
01:06:37.368 : :Chapter 10
01:10:40.611 : :Chapter 11
01:13:54.054 : :Chapter 12-x264 [info]: frame I:951 Avg QP:14.16 size:182278
x264 [info]: frame P:29023 Avg QP:16.92 size: 76192
x264 [info]: frame B:87961 Avg QP:19.25 size: 42762
x264 [info]: consecutive B-frames: 4.4% 4.4% 13.2% 15.4% 15.0% 38.2% 4.1% 1.0% 1.2% 3.0%

Скриншот с названием

Скриншоты


Различие между американским и российским трансферами

The Collection 2012
Blu-Ray Россия - 30 января 2013, Кармен Видео
Blu-Ray USA - 26 марта 2013, Lionsgate Films
1. Изображение в российском трансфере более светлое.
2. Наполнение кадра различное.
3. Площадь кадра без черных полос:
USA - 1920x818 pixels (2.35:1)
RUS - 1920x804 pixels (2.39:1)
4. Частота кадров:
USA - 23,976 fps
RUS - 24 fps
4. USA - присутствует заставка кинокомпании Lionsgate (~22 sec), отсутствует заставка системы рейтингов Американской киноассоциации,
RUS - присутствует заставка Restricted системы рейтингов Американской киноассоциации (~6,5 sec).
Таким образом, продолжительность получается:
RUS - 01:21:39 (24 fps) = более, чем 01:21:43 (23,976 fps)
Без заставки Restricted - 01:21:37 (23,976 fps) - так сказать, чистое видео
USA - 01:21:37 + 22sec = 01:21:59-
Скачать

Скачать торрент!

Как скачивать? · Что такое торрент? · Рейтинг и ограничения

Сайт не распространяет и не хранит электронные версии произведений, а лишь предоставляет доступ к создаваемому пользователями каталогу ссылок на торрент-файлы, которые содержат только списки хеш-сумм

[Профиль] [ЛС]
Показать сообщения:    
Ответить на тему

Текущее время: Сегодня 12:05

Часовой пояс: GMT + 4



Вы не можете начинать темы
Вы не можете отвечать на сообщения
Вы не можете редактировать свои сообщения
Вы не можете удалять свои сообщения
Вы не можете голосовать в опросах
Вы не можете прикреплять файлы к сообщениям
Вы не можете скачивать файлы