Мистер Совершенство / Mr. Perfect (Дасарадх / Dasaradh) [2011, Индия, Мелодрама, HDRip] МVO (Red Media)

Ответить на тему
 
Автор Сообщение

user ®

Стаж: 12 лет

Сообщений: 15092

Пост Пост: #1 от 17-Ноя-2013 20:25

[Цитировать]

Мистер Совершенство / Mr. Perfect
-Страна: Индия
Жанр: Мелодрама
Год выпуска: 2011
Продолжительность: 02:26:00-Язык: Телугу
Перевод: Профессиональный (многоголосый закадровый) - Red Media
Субтитры: Нет--Режиссер: Дасарадх / Dasaradh-В ролях: Прабхас, Каджал Агарвал, Пракаш Радж, Тапси Панну, Банерджи, Брахманандам, Мурали Мохан, Нассер--Описание: Вики (Прабхас) - разработчик компьютерных видеоигр, живет в Австралии и пытается сделать успешную карьеру. Девиз его жизни: «Будь, кем захочешь. Делай то, что тебе нравится». С детства он для себя решил, что никогда и никому нельзя уступать, иначе по жизни ты будешь проигравшим. И знаете, Вики счастлив... только он пока не встретил девушку своей мечты, а она, по мнению парня, должна полностью разделять его вкусы и взгляды на жизнь. С чем полностью не согласны родители Вики, они присмотрели для него прекрасную девушку. Прия (Каджал Агарвал) и Вики знакомы с детства, правда, они не в восторге друг от друга. Она считает его высокомерным, а он ее - занудой. Но теперь они выросли и смогли подружиться, а Прия постепенно стала влюбляться. Родители счастливы, но Вики отвергает Прию, потому что их миры не совпадают и возвращается в Австралию... а там его ждет встреча с девушкой его мечты.-- | Сэмпл--Качество видео: HDRip (исх. BDRip 1080p)
Формат видео: AVI-Видео: XviD, 720x304, 24 fps, 1787 Kbps
Аудио: АС3, 48 KHz, 2ch, 192 Kbps
-
Сэмпл / Sample--Риппер и сведение звука: soso4eg-- --

Скриншоты с названием:


-

Скриншоты:


-

MediaInfo:

Общее
Полное имя : D:\[Релизы]\Mister.Sovershenstvo.2011.HDRip.XviD-soso4eg.avi
Формат : AVI
Формат/Информация : Audio Video Interleave
Профиль формата : OpenDML
Размер файла : 2,03 Гбайт
Продолжительность : 2 ч. 26 м.
Общий поток : 1992 Кбит/сек
Название фильма : Mister.Sovershenstvo.2011.HDRip.XviD-soso4eg
Режиссёр : soso4eg
Программа кодирования : VirtualDubMod 1.5.10.3 | www.virtualdub-fr.org || (build 2550/release)
Правообладатель : ***
Видео
Идентификатор : 0
Формат : MPEG-4 Visual
Профиль формата : Advanced Simple@L5
Параметр BVOP формата : 2
Параметр QPel формата : Нет
Параметр GMC формата : Без точки перехода
Параметр матрицы формата : Default (H.263)
Идентификатор кодека : XVID
Идентификатор кодека/Подсказка : XviD
Продолжительность : 2 ч. 26 м.
Битрейт : 1787 Кбит/сек
Ширина : 720 пикселей
Высота : 304 пикселя
Соотношение сторон : 2,35:1
Частота кадров : 24,000 кадра/сек
Цветовое пространство : YUV
Субдискретизация насыщенности : 4:2:0
Битовая глубина : 8 бит
Тип развёртки : Прогрессивная
Метод сжатия : С потерями
Бит/(Пиксели*Кадры) : 0.340
Размер потока : 1,82 Гбайт (90%)
Библиотека кодирования : XviD 1.2.1 (UTC 2008-12-04)
Аудио
Идентификатор : 1
Формат : AC-3
Формат/Информация : Audio Coding 3
Расширение режима : CM (complete main)
Параметр Endianness формата : Big
Идентификатор кодека : 2000
Продолжительность : 2 ч. 26 м.
Вид битрейта : Постоянный
Битрейт : 192 Кбит/сек
Каналы : 2 канала
Расположение каналов : Front: L R
Частота : 48,0 КГц
Битовая глубина : 16 бит
Метод сжатия : С потерями
Размер потока : 201 Мбайт (10%)
Выравнивание : Разделение по промежуткам
Продолжительность промежутка : 42 мс. (1,00 видеокадр)
Время предзагрузки промежутка : 500 мс.
-
Скачать

Скачать торрент! Мистер Совершенство / Mr. Perfect (Дасарадх / Dasaradh) [2011, Индия, Мелодрама, HDRip] МVO (Red Media)

Как скачивать? · Что такое торрент? · Рейтинг и ограничения

Сайт не распространяет и не хранит электронные версии произведений, а лишь предоставляет доступ к создаваемому пользователями каталогу ссылок на торрент-файлы, которые содержат только списки хеш-сумм

[Профиль] [ЛС]
Показать сообщения:    
Ответить на тему

Текущее время: Сегодня 18:59

Часовой пояс: GMT + 4



Вы не можете начинать темы
Вы не можете отвечать на сообщения
Вы не можете редактировать свои сообщения
Вы не можете удалять свои сообщения
Вы не можете голосовать в опросах
Вы не можете прикреплять файлы к сообщениям
Вы не можете скачивать файлы