Муви 43 / Movie 43 (Стивен Брилл / Steven Brill, Питер Фаррелли / Peter Farrelly, Боб Оденкирк / Bob Odenkirk) [2013, США, комедия, BDRip 1080p] Dub + AVO (Goblin) + Original (Eng) + Sub (Rus, Eng)

Ответить на тему
 
Автор Сообщение

user ®

Стаж: 7 лет 7 месяцев

Сообщений: 20008

Пост Пост: #1 от 17-Ноя-2013 20:25

[Цитировать]

Муви 43 / Movie 43
Страна: США
Студия: GreeneStreet Films Inc., Relativity Media, Virgin Produced, Wessler Entertainment, Witness Protection Films
Жанр: комедия
Год выпуска: 2013
Продолжительность: 01:38:01
Перевод 1: Профессиональный (дублированный)
Перевод 2: Авторский (одноголосый закадровый) [Goblin]
Оригинальная аудиодорожка: английская
Cубтитры: русские, английские
Режиссер: Стивен Брилл / Steven Brill, Питер Фаррелли / Peter Farrelly, Боб Оденкирк / Bob Odenkirk
В ролях: Холли Берри, Джерард Батлер, Анна Фэрис, Хью Джекман, Джонни Ноксвилл, Кристофер Минц-Плассе, Шонн Уильям Скотт, Эмма Стоун, Кейт Уинслет, Клои Грейс Моретц, Элизабет Бэнкс, Кристен Белл, Наоми Уоттс, Бобби Каннавейл, Ума Турман, Крис Прэтт, Джош Дюамель, Ричард Гир, Кейт Босворт, Патрик Варбертон, Лив Шрайбер, Джастин Лонг, Лесли Бибб, Джейсон Судейкис, Киран Калкин, Джек МакБрайер, Терренс Ховард, Тони Шэлоуб, Стивен Мерчант, Джимми Беннетт, Мэтт Уолш, Джереми Аллен Уайт, Аасиф Мандви, Мартин Клеббэ, Бет Литтлфорд, Эмили Элин Линд, Марк Л. Янг, Саид Бадрия, Джули Энн
Описание: 25 cуперзвезд первой величины — в комедийном проекте, который состоит из двух десятков мини-новелл с нескончаемым потоком шуток, гэгов, острот и пародий, о страстях и страстишках человеческих.

Релиз: fanatus
Качество видео: BDRip 1080p
Исходник: BDRemux 1080p [BRA]
Контейнер: MKV
Видео: MPEG-4 AVC, 14000 kbps , 1916x1040 (1.85:1), 23.976 fps, 0.293 bit/pixel
Аудио 1: русский (DTS, 6 ch, 48 kHz, 1510 kbps) Dub
Аудио 2: русский (DTS, 6 ch, 48 kHz, 1510 kbps) AVO (Goblin)
Аудио 3: английский (DTS, 6 ch, 48 kHz, 1510 kbps) Original
Формат субтитров: softsub (SRT)
Главы: есть

MediaInfo

General
Unique ID : 252044373669491835965931306429282443607 (0xBD9DFB0C4CEA74DFAF5C3493D13EE157)
Complete name : D:\Muvi.43.2013.x264.BDRip.1080p.fanatus.mkv
Format : Matroska
Format version : Version 2
File size : 12.7 GiB
Duration : 1h 38mn
Overall bit rate : 18.5 Mbps
Movie name : Movie 43 (2013) - fanatus
Encoded date : UTC 2013-04-30 09:33:09
Writing application : mkvmerge v3.4.0 ('Rapunzel') сборка от May 15 2010 09:38:20
Writing library : libebml v0.8.0 + libmatroska v0.9.0
Video
ID : 1
Format : AVC
Format/Info : Advanced Video Codec
Format profile : High@L4.1
Format settings, CABAC : Yes
Format settings, ReFrames : 4 frames
Codec ID : V_MPEG4/ISO/AVC
Duration : 1h 38mn
Bit rate : 14.0 Mbps
Width : 1 916 pixels
Height : 1 040 pixels
Display aspect ratio : 1.85:1
Frame rate : 23.976 fps
Color space : YUV
Chroma subsampling : 4:2:0
Bit depth : 8 bits
Scan type : Progressive
Bits/(Pixel*Frame) : 0.293
Stream size : 9.33 GiB (74%)
Title : Movie 43 (2013)
Writing library : x264 core 130 r2273 b3065e6
Encoding settings : cabac=1 / ref=4 / deblock=1:-3:-3 / analyse=0x3:0x113 / me=umh / subme=11 / psy=1 / psy_rd=1.00:0.10 / mixed_ref=1 / me_range=48 / chroma_me=1 / trellis=2 / 8x8dct=1 / cqm=0 / deadzone=21,11 / fast_pskip=0 / chroma_qp_offset=-3 / threads=16 / lookahead_threads=2 / sliced_threads=0 / nr=0 / decimate=0 / interlaced=0 / bluray_compat=0 / constrained_intra=0 / bframes=9 / b_pyramid=2 / b_adapt=2 / b_bias=0 / direct=3 / weightb=1 / open_gop=0 / weightp=2 / keyint=240 / keyint_min=23 / scenecut=40 / intra_refresh=0 / rc_lookahead=240 / rc=2pass / mbtree=0 / bitrate=14000 / ratetol=1.0 / qcomp=0.75 / qpmin=0 / qpmax=69 / qpstep=4 / cplxblur=20.0 / qblur=0.5 / vbv_maxrate=50000 / vbv_bufsize=62500 / nal_hrd=none / ip_ratio=1.40 / pb_ratio=1.30 / aq=1:0.75
Language : English
Default : Yes
Forced : No
Color primaries : BT.709-5, BT.1361, IEC 61966-2-4, SMPTE RP177
Transfer characteristics : BT.709-5, BT.1361
Matrix coefficients : BT.709-5, BT.1361, IEC 61966-2-4 709, SMPTE RP177
Audio #1
ID : 2
Format : DTS
Format/Info : Digital Theater Systems
Codec ID : A_DTS
Duration : 1h 38mn
Bit rate mode : Constant
Bit rate : 1 510 Kbps
Channel(s) : 6 channels
Channel positions : Front: L C R, Side: L R, LFE
Sampling rate : 48.0 KHz
Bit depth : 16 bits
Compression mode : Lossy
Stream size : 1.03 GiB (8%)
Title : Dub
Language : Russian
Default : Yes
Forced : Yes
Audio #2
ID : 3
Format : DTS
Format/Info : Digital Theater Systems
Codec ID : A_DTS
Duration : 1h 38mn
Bit rate mode : Constant
Bit rate : 1 510 Kbps
Channel(s) : 6 channels
Channel positions : Front: L C R, Side: L R, LFE
Sampling rate : 48.0 KHz
Bit depth : 16 bits
Compression mode : Lossy
Stream size : 1.03 GiB (8%)
Title : AVO (Goblin)
Language : Russian
Default : No
Forced : No
Audio #3
ID : 4
Format : DTS
Format/Info : Digital Theater Systems
Codec ID : A_DTS
Duration : 1h 38mn
Bit rate mode : Constant
Bit rate : 1 510 Kbps
Channel(s) : 6 channels
Channel positions : Front: L C R, Side: L R, LFE
Sampling rate : 48.0 KHz
Bit depth : 16 bits
Compression mode : Lossy
Stream size : 1.03 GiB (8%)
Title : Original
Language : English
Default : No
Forced : No
Text #1
ID : 5
Format : UTF-8
Codec ID : S_TEXT/UTF8
Codec ID/Info : UTF-8 Plain Text
Language : Russian
Default : No
Forced : No
Text #2
ID : 6
Format : UTF-8
Codec ID : S_TEXT/UTF8
Codec ID/Info : UTF-8 Plain Text
Language : English
Default : No
Forced : No
Menu
00:00:00.000 : en:00:00:00.000
00:13:18.464 : en:00:13:18.464
00:23:28.616 : en:00:23:28.616
00:33:14.534 : en:00:33:14.534
00:42:04.772 : en:00:42:04.772
00:55:17.689 : en:00:55:17.689
01:07:17.909 : en:01:07:17.909
01:14:12.448 : en:01:14:12.448
01:23:19.703 : en:01:23:19.703
01:28:51.284 : en:01:28:51.284

x264 [info]

---[NoImage] raw [info]: 1916x1040p 1:1 @ 24000/1001 fps (cfr)
---[NoImage] x264 [info]: using SAR=1/1
---[NoImage] x264 [info]: using cpu capabilities: MMX2 SSE2Fast SSSE3 SSE4.2 AVX
---[NoImage] x264 [info]: profile High, level 4.1
---[NoImage]
---[NoImage] x264 [info]: frame I:1280 Avg QP:14.92 size:253703
---[NoImage] x264 [info]: frame P:33832 Avg QP:16.03 size:113103
---[NoImage] x264 [info]: frame B:105913 Avg QP:18.93 size: 57910
---[NoImage] x264 [info]: consecutive B-frames: 5.0% 5.5% 7.2% 11.6% 11.3% 52.2% 4.3% 0.5% 0.7% 1.8%
---[NoImage] x264 [info]: mb I I16..4: 22.2% 55.6% 22.2%
---[NoImage] x264 [info]: mb P I16..4: 2.4% 23.4% 1.7% P16..4: 19.9% 22.8% 7.0% 0.0% 0.0% skip:22.8%
---[NoImage] x264 [info]: mb B I16..4: 0.4% 3.2% 0.2% B16..8: 40.2% 20.4% 3.5% direct: 7.5% skip:24.7% L0:44.9% L1:42.0% BI:13.1%
---[NoImage] x264 [info]: 8x8 transform intra:82.6% inter:53.5%
---[NoImage] x264 [info]: direct mvs spatial:95.7% temporal:4.3%
---[NoImage] x264 [info]: coded y,uvDC,uvAC intra: 89.5% 75.8% 56.6% inter: 40.4% 30.9% 9.3%
---[NoImage] x264 [info]: i16 v,h,dc,p: 31% 12% 19% 38%
---[NoImage] x264 [info]: i8 v,h,dc,ddl,ddr,vr,hd,vl,hu: 9% 8% 13% 9% 13% 12% 12% 11% 13%
---[NoImage] x264 [info]: i4 v,h,dc,ddl,ddr,vr,hd,vl,hu: 15% 13% 18% 6% 11% 10% 10% 8% 11%
---[NoImage] x264 [info]: i8c dc,h,v,p: 36% 30% 19% 14%
---[NoImage] x264 [info]: Weighted P-Frames: Y:1.7% UV:0.6%
---[NoImage] x264 [info]: ref P L0: 51.4% 10.0% 25.4% 12.3% 0.9% 0.0%
---[NoImage] x264 [info]: ref B L0: 85.8% 11.2% 3.0%
---[NoImage] x264 [info]: ref B L1: 93.3% 6.7%
---[NoImage] x264 [info]: kb/s:13988.16
---[NoImage] encoded 141025 frames, 3.82 fps, 13988.16 kb/s

Скриншот c названием фильма

Скачать

Скачать торрент!

Как скачивать? · Что такое торрент? · Рейтинг и ограничения

Сайт не распространяет и не хранит электронные версии произведений, а лишь предоставляет доступ к создаваемому пользователями каталогу ссылок на торрент-файлы, которые содержат только списки хеш-сумм

[Профиль] [ЛС]
Показать сообщения:    
Ответить на тему

Текущее время: Сегодня 23:44

Часовой пояс: GMT + 4



Вы не можете начинать темы
Вы не можете отвечать на сообщения
Вы не можете редактировать свои сообщения
Вы не можете удалять свои сообщения
Вы не можете голосовать в опросах
Вы не можете прикреплять файлы к сообщениям
Вы не можете скачивать файлы