Смурфики 2 / The Smurfs 2 (Раджа Госнелл / Raja Gosnell) [2013 г., мультфильм, фэнтези, комедия, семейный, BDRip-AVC] (Локализованный видеоряд) Dub + Ukr + Eng + Subs (Rus, Ukr, Eng)

Ответить на тему
 
Автор Сообщение

user ®

Стаж: 11 лет

Сообщений: 15145

Пост Пост: #1 от 17-Ноя-2013 17:15

[Цитировать]

- P R E S E N T SСмурфики 2 / The Smurfs 2- Страна: США
Жанр: мультфильм, фэнтези, комедия, семейный
Продолжительность: 01:44:54
Год выпуска: 2013
Перевод: Профессиональный (полное дублирование)
Субтитры: есть-Режиссёр: Раджа Госнелл / Raja Gosnell
Роли озвучивали: Хэнк Азария, Нил Патрик Харрис, Брендан Глисон, Джейма Мейс, Джонатан Уинтерс, Кэти Перри, Кристина Риччи, Дж.Б. Смув, Джордж Лопес, Антон Ельчин, Джон Оливер, Фрэнк Уэлкер, Фред Армизен, Алан Камминг, Джейкоб Тремблэ, Нэнси О'Делл...
Роли дублировали: Сергей Паршин, Нюша Шурочкина- | | -Описание: Гаргамел создаёт Хакуса и Векси, как две капли воды похожую на смурфиков злобную парочку, надеясь всё-таки обрести магическую силу. Когда он узнаёт, что лишь настоящий смурф может дать ему то, что он хочет, и лишь Смурфетта способна превратить Хакуса и Векси в настоящих смурфов, Гаргамел похищает Смурфетту и берёт её с собой в Париж, планируя сделать её своей прислужницей. Но смурфики - Папа, Растяпа, Смельчак, Ворчун, Красавчик, Благоразумник и их друзья из Нью-Йорка этого так не оставят. Тем более что к ним присоединился новорождённый Голубчик...-Доп. информация: BDRip 612p (1.850:1) сделан с Blu-Ray диска The Smurfs 2 2013 CEE BluRay 1080p AVC DTS-HD MA5.1-CHDBits.
Отдельное спасибо xfiles за подготовку субтитров.
Ошибка AR в рипе - 0%.
-Сэмпл/Sample (35.5 MB, 1 минута)-Качество: BDRip-AVC
Формат: MKV
Видео: 1132x612 (1.850:1), 23,976 fps, ~4113 kbps avg, 0.248 bit/pixel
Аудио #1: Русский, AC3, 6 ch, 48 kHz, 448 kbps - Дубляж
Аудио #2: Украинский, AC3, 6 ch, 48 kHz, 448 kbps - Дубляж
Аудио #3: English, AC3, 6 ch, 48 kHz, 448 kbps - Original
Субтитры: Русские (полные), Украинские (форсированные), English (Full)
Навигация по главам: есть (16 не именованных глав)

MediaInfo / x264Log

x264Log

raw [info]: 1132x612p 1:1 @ 24000/1001 fps (cfr)x264 [info]: using SAR=1/1x264 [info]: using cpu capabilities: MMX2 SSE2Fast SSSE3 SSE4.2 AVX XOP FMA4 FMA3 LZCNT BMI1x264 [info]: profile High, level 4.1x264 [info]: frame I:1436 Avg QP:15.28 size:105193 PSNR Mean Y:47.55 U:49.91 V:50.72 Avg:48.28 Global:47.92x264 [info]: frame P:37914 Avg QP:16.75 size: 41680 PSNR Mean Y:45.94 U:48.74 V:49.53 Avg:46.74 Global:46.21x264 [info]: frame B:111562 Avg QP:19.50 size: 13487 PSNR Mean Y:45.13 U:48.31 V:49.23 Avg:46.01 Global:45.50x264 [info]: consecutive B-frames: 3.2% 4.3% 8.6% 44.4% 13.1% 19.4% 3.0% 3.4% 0.4% 0.2% 0.1%x264 [info]: mb I I16..4: 2.5% 73.7% 23.8%x264 [info]: mb P I16..4: 0.8% 18.2% 3.8% P16..4: 25.2% 30.1% 15.6% 3.0% 0.3% skip: 3.0%x264 [info]: mb B I16..4: 0.2% 3.1% 0.7% B16..8: 29.1% 24.1% 5.6% direct: 5.7% skip:31.4% L0:41.3% L1:41.4% BI:17.3%x264 [info]: 8x8 transform intra:78.6% inter:54.7%x264 [info]: coded y,uvDC,uvAC intra: 89.3% 86.0% 65.3% inter: 26.0% 19.1% 5.2%x264 [info]: i16 v,h,dc,p: 14% 11% 3% 72%x264 [info]: i8 v,h,dc,ddl,ddr,vr,hd,vl,hu: 14% 12% 8% 8% 11% 11% 12% 11% 14%x264 [info]: i4 v,h,dc,ddl,ddr,vr,hd,vl,hu: 30% 9% 5% 6% 12% 10% 10% 8% 9%x264 [info]: i8c dc,h,v,p: 33% 30% 20% 17%x264 [info]: Weighted P-Frames: Y:4.2% UV:2.9%x264 [info]: ref P L0: 48.1% 11.4% 15.8% 7.1% 5.2% 3.4% 3.2% 2.3% 1.9% 1.5% 0.2% 0.0%x264 [info]: ref B L0: 74.6% 10.2% 4.9% 3.5% 2.5% 1.7% 1.4% 0.9% 0.4%x264 [info]: ref B L1: 94.3% 5.7%x264 [info]: SSIM Mean Y:0.9857419 (18.459db)x264 [info]: PSNR Mean Y:45.355 U:48.434 V:49.319 Avg:46.218 Global:45.688 kb/s:4112.82encoded 150912 frames, 8.19 fps, 4112.82 kb/s
GeneralUnique ID : 187035809061626633226613588757822586696 (0x8CB5C95A5253715ABF24087FE6183F48)Complete name : The.Smurfs.II.2013.BDRip-AVC.612p.dfcbit.mkvFormat : MatroskaFormat version : Version 2File size : 4.00 GiBDuration : 1h 44mnOverall bit rate : 5 459 KbpsEncoded date : UTC 2013-11-17 09:00:11Writing application : mkvmerge v4.0.0 ('The Stars were mine') built on Jun 6 2010 16:18:42Writing library : libebml v1.0.0 + libmatroska v1.0.0
VideoID : 1Format : AVCFormat/Info : Advanced Video CodecFormat profile : High@L4.1Format settings, CABAC : YesFormat settings, ReFrames : 10 framesCodec ID : V_MPEG4/ISO/AVCDuration : 1h 44mnBit rate : 4 113 KbpsWidth : 1 132 pixelsHeight : 612 pixelsDisplay aspect ratio : 1.85:1Frame rate mode : ConstantFrame rate : 23.976 fpsColor space : YUVChroma subsampling : 4:2:0Bit depth : 8 bitsScan type : ProgressiveBits/(Pixel*Frame) : 0.248Stream size : 3.01 GiB (73%)Title : NTSC, 1132x612 (1.850:1), BDRip 612p - tRuAVC & Multfilmy [DFCbit]Writing library : x264 core 140 r2377kMod 1ca7bb9Encoding settings : cabac=1 / ref=10 / deblock=1:-2:-1 / analyse=0x3:0x133 / me=umh / subme=11 / psy=1 / fade_compensate=0.00 / psy_rd=0.60:0.00 / mixed_ref=1 / me_range=32 / chroma_me=1 / trellis=2 / 8x8dct=1 / cqm=0 / deadzone=21,11 / fast_pskip=0 / chroma_qp_offset=-2 / threads=12 / lookahead_threads=3 / sliced_threads=0 / nr=0 / decimate=1 / interlaced=0 / bluray_compat=0 / constrained_intra=0 / fgo=0 / bframes=10 / b_pyramid=2 / b_adapt=2 / b_bias=0 / direct=1 / weightb=1 / open_gop=0 / weightp=2 / keyint=250 / keyint_min=23 / scenecut=40 / intra_refresh=0 / rc_lookahead=70 / rc=crf / mbtree=0 / crf=17.5050 / qcomp=0.80 / qpmin=0 / qpmax=69 / qpstep=4 / vbv_maxrate=50000 / vbv_bufsize=62500 / crf_max=0.0 / nal_hrd=none / filler=0 / ip_ratio=1.40 / pb_ratio=1.30 / aq=3:0.90Language : RussianDefault : YesForced : NoColor primaries : BT.709Transfer characteristics : BT.709Matrix coefficients : BT.709
Audio #1ID : 2Format : AC-3Format/Info : Audio Coding 3Mode extension : CM (complete main)Format settings, Endianness : BigCodec ID : A_AC3Duration : 1h 44mnBit rate mode : ConstantBit rate : 448 KbpsChannel(s) : 6 channelsChannel positions : Front: L C R, Side: L R, LFESampling rate : 48.0 KHzBit depth : 16 bitsCompression mode : LossyStream size : 336 MiB (8%)Title : AC3, 6 ch, 48 kHz, 448 kbps - ДубляжLanguage : RussianDefault : YesForced : No
Audio #2ID : 3Format : AC-3Format/Info : Audio Coding 3Mode extension : CM (complete main)Format settings, Endianness : BigCodec ID : A_AC3Duration : 1h 44mnBit rate mode : ConstantBit rate : 448 KbpsChannel(s) : 6 channelsChannel positions : Front: L C R, Side: L R, LFESampling rate : 48.0 KHzBit depth : 16 bitsCompression mode : LossyStream size : 336 MiB (8%)Title : AC3, 6 ch, 48 kHz, 448 kbps - ДубляжLanguage : UkrainianDefault : NoForced : No
Audio #3ID : 4Format : AC-3Format/Info : Audio Coding 3Mode extension : CM (complete main)Format settings, Endianness : BigCodec ID : A_AC3Duration : 1h 44mnBit rate mode : ConstantBit rate : 448 KbpsChannel(s) : 6 channelsChannel positions : Front: L C R, Side: L R, LFESampling rate : 48.0 KHzBit depth : 16 bitsCompression mode : LossyStream size : 336 MiB (8%)Title : AC3, 6 ch, 48 kHz, 448 kbps - OriginalLanguage : EnglishDefault : NoForced : No
Text #1ID : 5Format : UTF-8Codec ID : S_TEXT/UTF8Codec ID/Info : UTF-8 Plain TextTitle : SRT, FullLanguage : RussianDefault : NoForced : No
Text #2ID : 6Format : UTF-8Codec ID : S_TEXT/UTF8Codec ID/Info : UTF-8 Plain TextTitle : SRT, ForcedLanguage : UkrainianDefault : NoForced : No
Text #3ID : 7Format : UTF-8Codec ID : S_TEXT/UTF8Codec ID/Info : UTF-8 Plain TextTitle : SRT, FullLanguage : EnglishDefault : NoForced : No
Menu00:00:00.000 : en:Chapter 100:05:00.133 : en:Chapter 200:11:12.755 : en:Chapter 300:18:14.093 : en:Chapter 400:23:18.522 : en:Chapter 500:27:54.590 : en:Chapter 600:34:25.480 : en:Chapter 700:41:09.342 : en:Chapter 800:46:10.434 : en:Chapter 900:50:59.098 : en:Chapter 1000:56:47.863 : en:Chapter 1101:02:33.875 : en:Chapter 1201:07:06.773 : en:Chapter 1301:14:10.196 : en:Chapter 1401:21:05.819 : en:Chapter 1501:28:24.591 : en:Chapter 16

Скриншоты

Локализация (все, что есть)
--BDRip-AVC


Source Blu-Ray

-Данный релиз не будет воспроизводиться на бытовых плеерах не поддерживающих MKV и H.264
Скачать

Скачать торрент! Смурфики 2 / The Smurfs 2 (Раджа Госнелл / Raja Gosnell) [2013 г., мультфильм, фэнтези, комедия, семейный, BDRip-AVC] (Локализованный видеоряд) Dub + Ukr + Eng + Subs (Rus, Ukr, Eng)

Как скачивать? · Что такое торрент? · Рейтинг и ограничения

Сайт не распространяет и не хранит электронные версии произведений, а лишь предоставляет доступ к создаваемому пользователями каталогу ссылок на торрент-файлы, которые содержат только списки хеш-сумм

[Профиль] [ЛС]
Показать сообщения:    
Ответить на тему

Текущее время: Сегодня 19:13

Часовой пояс: GMT + 4



Вы не можете начинать темы
Вы не можете отвечать на сообщения
Вы не можете редактировать свои сообщения
Вы не можете удалять свои сообщения
Вы не можете голосовать в опросах
Вы не можете прикреплять файлы к сообщениям
Вы не можете скачивать файлы