Преданный / Предательство / Betrayed (Коста-Гаврас / Costa-Gavras) [1988, США, Япония, боевик, триллер, драма, HDTV 1080i] DVO (НТВ+) + VO + Sub Eng + Original Eng

Ответить на тему
 
Автор Сообщение

user ®

Стаж: 7 лет 7 месяцев

Сообщений: 20008

Пост Пост: #1 от 17-Ноя-2013 14:05

[Цитировать]

Преданный / Предательство / Betrayed
Страна: США, Япония
Студия: United Artists, Winkler Films, CST Telecommunications
Жанр: боевик, триллер, драма
Год выпуска: 1988
Продолжительность: 02:01:15
Перевод 1: Профессиональный (двухголосый закадровый) НТВ+
Перевод 2: Одноголосый закадровый (Дмитрий Стасюк)
Cубтитры: английские
Оригинальная аудиодорожка: английский
Режиссер: Коста-Гаврас / Costa-Gavras
В ролях: Дебра Уингер, Том Беренджер, Джон Хёрд, Бетси Блэр, Джон Махони, Тед Левайн, Джефри ДеМанн, Альберт Холл, Дэвид Кленнон, Роберт Суон
Описание: В Чикаго происходит убийство — убит ведущий популярного радиошоу, обладатель звания «Голос Среднего Запада» — афроамериканец Сэм Краус. Его труп находят в его собственном гараже вместе с надписью ZOG (Сионистское оккупационное правительство). В своей передаче Сэм затрагивал острые социальные проблемы, и расисты решили ему отомстить.
ФБР решает найти убийц популярного журналиста. Есть сведения, что к убийству причастна группа белых расистов из сельских районов Среднего Запада. А главный подозреваемый — некто Гэри Симмонс. ФБР решает внедрить своего агента — привлекательную женщину Кэтрин Филлипс в сельский район под именем Кэти Уиверс.
Кэти начинает свою новую жизнь в деревне — теперь она комбайнёр и должна убирать урожай на ферме Гэри Симмонса. Там Кэти и знакомится с Гэри. Гэри в прошлом воевал во Вьетнаме, был женат, но овдовел. У него осталось двое детей — сын и дочь. Кэти знакомится с ними, а также и с матерью Гэри.
Сам Гэри красив, добр и мужественен, и Кэти полагает, что он не виновен. Между Кэти и Гэри возникает дружба, которая постепенно перерастает в любовь. Детям Гэри Кэти тоже нравится, да и она сама к ним привязываается. Когда работа по сбору урожая завершена, Гэри просит Кэти остаться у него насовсем.
Он фактически предлагает Кэти стать его женой. И теперь он готов открыть своей избраннице страшную тайну. Оказывается Гэри — расист, и он убивает чернокожих. А сама Кэти тоже должна готовиться к своей первой «охоте». Теперь Кэти Уиверс стоит перед выбором: кого же предать — свои идеалы и долг или человека, которого она полюбила.

IMDB
Доп. информация: За одноголосый перевод и оригинальную дорогу спасибо Нордер и stdms
Тип релиза: HDTV 1080i
Контейнер: MKV
Видео: AVC 1920x1080 (16:9) 25.0fps Bit rate 7572Kbps
Аудио 1: MP2 48.0KHz 2ch 192 Kbps rus DVO
Аудио 2: AC3 48.0KHz 2ch 192 Kbps rus VO
Аудио 3: AC3 48.0KHz 2ch 192 Kbps eng
Формат субтитров: softsub (SRT)

MediaInfo

Общее
Уникальный идентификатор : 206596486170962088340571322045912837707 (0x9B6D09318A7787FFBE44FB4518CBEE4B)
Полное имя : E:\torrent\Predatelstvo_HDTV1080i.mkv
Формат : Matroska
Версия формата : Version 4 / Version 2
Размер файла : 7,04 Гбайт
Продолжительность : 2 ч. 1 м.
Общий поток : 8314 Кбит/сек
Дата кодирования : UTC 2013-11-16 07:58:19
Программа кодирования : mkvmerge v6.4.1 ('Omega Point') built on Sep 16 2013 22:05:10
Библиотека кодирования : libebml v1.3.0 + libmatroska v1.4.1
Видео
Идентификатор : 1
Формат : AVC
Формат/Информация : Advanced Video Codec
Профиль формата : High@L4.0
Параметр CABAC формата : Да
Параметр ReFrames формата : 3 кадра
Параметр GOP формата : M=4, N=32
Идентификатор кодека : V_MPEG4/ISO/AVC
Продолжительность : 2 ч. 1 м.
Битрейт : 7572 Кбит/сек
Ширина : 1920 пикселей
Высота : 1080 пикселей
Соотношение сторон : 16:9
Режим частоты кадров : Постоянный
Частота кадров : 25,000 кадров/сек
Стандарт вещания : Component
Цветовое пространство : YUV
Субдискретизация насыщенности : 4:2:0
Битовая глубина : 8 бит
Тип развёртки : Чересстрочная
Порядок развёртки : Верхнее поле первое
Бит/(Пиксели*Кадры) : 0.146
Размер потока : 6,41 Гбайт (91%)
Заголовок : Betrayed_HDTV1080i
Default : Да
Forced : Нет
Основные цвета : BT.709
Характеристики трансфера : BT.709
Коэффициенты матрицы : BT.709
Аудио #1
Идентификатор : 2
Формат : MPEG Audio
Версия формата : Version 1
Профиль формата : Layer 2
Идентификатор кодека : A_MPEG/L2
Идентификатор кодека/Подсказка : MP2
Продолжительность : 2 ч. 1 м.
Вид битрейта : Постоянный
Битрейт : 192 Кбит/сек
Каналы : 2 канала
Частота : 48,0 КГц
Метод сжатия : С потерями
Размер потока : 167 Мбайт (2%)
Заголовок : Betrayed_MP2_2ch_DVO_NTV+
Язык : Russian
Default : Да
Forced : Нет
Аудио #2
Идентификатор : 3
Формат : AC-3
Формат/Информация : Audio Coding 3
Расширение режима : CM (complete main)
Параметр Endianness формата : Big
Идентификатор кодека : A_AC3
Продолжительность : 2 ч. 1 м.
Вид битрейта : Постоянный
Битрейт : 192 Кбит/сек
Каналы : 2 канала
Расположение каналов : Front: L R
Частота : 48,0 КГц
Битовая глубина : 16 бит
Метод сжатия : С потерями
Размер потока : 167 Мбайт (2%)
Заголовок : Betrayed_AC3_2ch_VO
Язык : Russian
Default : Нет
Forced : Нет
Аудио #3
Идентификатор : 4
Формат : AC-3
Формат/Информация : Audio Coding 3
Расширение режима : CM (complete main)
Параметр Endianness формата : Big
Идентификатор кодека : A_AC3
Продолжительность : 2 ч. 1 м.
Вид битрейта : Постоянный
Битрейт : 192 Кбит/сек
Каналы : 2 канала
Расположение каналов : Front: L R
Частота : 48,0 КГц
Битовая глубина : 16 бит
Метод сжатия : С потерями
Размер потока : 167 Мбайт (2%)
Заголовок : Betrayed_AC3_2ch_original eng
Язык : English
Default : Нет
Forced : Нет
Текст
Идентификатор : 5
Формат : UTF-8
Идентификатор кодека : S_TEXT/UTF8
Идентификатор кодека/Информация : UTF-8 Plain Text
Заголовок : Betrayed_subtitle eng
Язык : English
Default : Нет
Forced : Нет

Скриншот с названием фильма

Скриншоты

Сравнение с DVD


Скачать

Скачать торрент!

Как скачивать? · Что такое торрент? · Рейтинг и ограничения

Сайт не распространяет и не хранит электронные версии произведений, а лишь предоставляет доступ к создаваемому пользователями каталогу ссылок на торрент-файлы, которые содержат только списки хеш-сумм

[Профиль] [ЛС]
Показать сообщения:    
Ответить на тему

Текущее время: Сегодня 05:57

Часовой пояс: GMT + 4



Вы не можете начинать темы
Вы не можете отвечать на сообщения
Вы не можете редактировать свои сообщения
Вы не можете удалять свои сообщения
Вы не можете голосовать в опросах
Вы не можете прикреплять файлы к сообщениям
Вы не можете скачивать файлы