Техасская резня бензопилой: Начало / The Texas Chainsaw Massacre: The Beginning (Джонатан Либесман / Jonathan Liebesman) [2006 г., ужасы, триллер, BDRemux 1080p] [Театральная версия / Theatrical Cut] Dub + DVO + Original Eng + Sub Rus, Eng

Ответить на тему
 
Автор Сообщение

user ®

Стаж: 7 лет 7 месяцев

Сообщений: 20008

Пост Пост: #1 от 17-Ноя-2013 14:05

[Цитировать]

Техасская резня бензопилой: Начало / The Texas Chainsaw Massacre: The Beginning
[Театральная версия / Theatrical Cut]
«Узнай, как рождается страх!»- Год выпуска: 2006
Страна: США
Жанр: ужасы, триллер
Продолжительность: 01:30:50
Перевод 1: Профессиональный (Полное дублирование)
Перевод 2: Профессиональный (Двухголосый закадровый) - П. Гланц и И. Королева
Субтитры: русские (R5), английские, английские (для слабослышащих)
Оригинальная аудиодорожка: английская-Режиссер: Джонатан Либесман
Продюсер: Майкл Бэй, Майк Флайсс, Эндрю Форм
Сценарий: Шелдон Тернер, Дэвид Дж. Шоу- -Премьера (мир): 5 октября 2006
Премьера (РФ): 30 ноября 2006-В ролях: Джордана Брюстер, Тейлор Хэндли, Диора Бэрд, Мэтт Бомер, Р. Ли Эрми, Эндрю Бринярски, Ли Тергесен, Терренс Эванс, Кэти Ламкин, Мэриетта Мэрич-Описание:
Братья вместе со своими подружками отправляются в автомобильное путешествие, которое должно стать последним развлечением до того, как их отправят служить во Вьетнам.
По дороге они попадают в аварию, и тут появляется местный шериф, знакомство с которым становится началом сущего кошмара: они оказываются в мрачном доме, в стенах которого воспитывается беспощадный убийца по прозвищу Кожаное Лицо…-Качество: BDRemux 1080p SAMPLE
Исходник: US BluRay
Формат: MKV
Видео: MPEG4 Video (H264) 1920x1080 23.976fps ~21881Kbps
Аудио #1: 48 kHz, AC3, 5.1, ~384.00 kbps avg |Дубляж, R5|
Аудио #2: 48 kHz, DTS-HD MA, 5.1, ~3957 Kbps (DTS Core: 5.1 / 1509 kbps / 48 kHz) avg |Профессиональный, двухголосый - П. Гланц и И. Королева|
Аудио #3: 48 kHz, DTS-HD MA, 5.1, ~3932 Kbps (DTS Core: 5.1 / 1509 kbps / 48 kHz) avg |Оригинал|
Аудио #4: 48 kHz, AC3, 2.0, ~192.00 kbps avg |Commentary by Director & Producer|
Субтитры: SoftSub (SRT)
Главы: 9 шт. (неподписанные)
-

MediaInfo

Общее
Уникальный идентификатор                 : 196159100677493701738136773170037819808 (0x9392DE5BA504442488437CDBF65089A0)
Полное имя                               : D:\Видео\HD\Техасская резня бензопилой - Начало [BDRemux 1080p].mkv
Формат                                   : Matroska
Версия формата                           : Version 4 / Version 2
Размер файла                             : 19,3 Гбайт
Продолжительность                        : 1 ч. 30 м.
Режим общего битрейта                    : Переменный
Общий поток                              : 30,4 Мбит/сек
Название фильма                          : Release by spartanec163
Дата кодирования                         : UTC 2013-11-10 14:53:27
Программа кодирования                    : mkvmerge v6.3.0 ('You can't stop me!') built on Jun 28 2013 20:09:41
Библиотека кодирования                   : libebml v1.3.0 + libmatroska v1.4.0
Видео
Идентификатор                            : 1
Формат                                   : AVC
Формат/Информация                        : Advanced Video Codec
Профиль формата                          : High@L4.1
Параметр CABAC формата                   : Да
Параметр ReFrames формата                : 2 кадра
Параметр GOP формата                     : M=1, N=10
Идентификатор кодека                     : V_MPEG4/ISO/AVC
Продолжительность                        : 1 ч. 30 м.
Вид битрейта                             : Переменный
Ширина                                   : 1920 пикселей
Высота                                   : 1080 пикселей
Соотношение сторон                       : 16:9
Режим частоты кадров                     : Постоянный
Частота кадров                           : 23,976 кадра/сек
Цветовое пространство                    : YUV
Субдискретизация насыщенности            : 4:2:0
Битовая глубина                          : 8 бит
Тип развёртки                            : Прогрессивная
Заголовок                                : BDRemux
Язык                                     : English
Default                                  : Да
Forced                                   : Нет
Аудио #1
Идентификатор                            : 2
Формат                                   : AC-3
Формат/Информация                        : Audio Coding 3
Расширение режима                        : CM (complete main)
Параметр Endianness формата              : Big
Идентификатор кодека                     : A_AC3
Продолжительность                        : 1 ч. 30 м.
Вид битрейта                             : Постоянный
Битрейт                                  : 384 Кбит/сек
Каналы                                   : 6 каналов
Расположение каналов                     : Front: L C R, Side: L R, LFE
Частота                                  : 48,0 КГц
Битовая глубина                          : 16 бит
Метод сжатия                             : С потерями
Размер потока                            : 249 Мбайт (1%)
Заголовок                                : AC3 5.1 384Kbps (Дубляж)
Язык                                     : Russian
Default                                  : Да
Forced                                   : Нет
Аудио #2
Идентификатор                            : 3
Формат                                   : DTS
Формат/Информация                        : Digital Theater Systems
Профиль формата                          : MA / Core
Режим                                    : 16
Параметр Endianness формата              : Big
Идентификатор кодека                     : A_DTS
Продолжительность                        : 1 ч. 30 м.
Вид битрейта                             : Переменный
Битрейт                                  : Неизвестно / 1509 Кбит/сек
Каналы                                   : 6 каналов
Расположение каналов                     : Front: L C R, Side: L R, LFE
Частота                                  : 48,0 КГц
Битовая глубина                          : 24 бит
Метод сжатия                             : Без потерь / Lossy
Заголовок                                : DTS-HD 5.1 3957Kbps (Профессиональный, двухголосый - П.Гланц и И.Королева)
Язык                                     : Russian
Default                                  : Нет
Forced                                   : Нет
Аудио #3
Идентификатор                            : 4
Формат                                   : DTS
Формат/Информация                        : Digital Theater Systems
Профиль формата                          : MA / Core
Режим                                    : 16
Параметр Endianness формата              : Big
Идентификатор кодека                     : A_DTS
Продолжительность                        : 1 ч. 30 м.
Вид битрейта                             : Переменный
Битрейт                                  : Неизвестно / 1509 Кбит/сек
Каналы                                   : 6 каналов
Расположение каналов                     : Front: L C R, Side: L R, LFE
Частота                                  : 48,0 КГц
Битовая глубина                          : 24 бит
Метод сжатия                             : Без потерь / Lossy
Заголовок                                : DTS-HD 5.1 3932Kbps (Оригинал)
Язык                                     : English
Default                                  : Нет
Forced                                   : Нет
Аудио #4
Идентификатор                            : 5
Формат                                   : AC-3
Формат/Информация                        : Audio Coding 3
Расширение режима                        : CM (complete main)
Параметр Endianness формата              : Big
Идентификатор кодека                     : A_AC3
Продолжительность                        : 1 ч. 30 м.
Вид битрейта                             : Постоянный
Битрейт                                  : 192 Кбит/сек
Каналы                                   : 2 канала
Расположение каналов                     : Front: L R
Частота                                  : 48,0 КГц
Битовая глубина                          : 16 бит
Метод сжатия                             : С потерями
Размер потока                            : 125 Мбайт (1%)
Заголовок                                : AC3 2.0 192Kbps (Commentary by Director & Producers)
Язык                                     : English
Default                                  : Нет
Forced                                   : Нет
Текст #1
Идентификатор                            : 6
Формат                                   : UTF-8
Идентификатор кодека                     : S_TEXT/UTF8
Идентификатор кодека/Информация          : UTF-8 Plain Text
Заголовок                                : R5
Язык                                     : Russian
Default                                  : Нет
Forced                                   : Нет
Текст #2
Идентификатор                            : 7
Формат                                   : UTF-8
Идентификатор кодека                     : S_TEXT/UTF8
Идентификатор кодека/Информация          : UTF-8 Plain Text
Язык                                     : English
Default                                  : Нет
Forced                                   : Нет
Текст #3
Идентификатор                            : 8
Формат                                   : UTF-8
Идентификатор кодека                     : S_TEXT/UTF8
Идентификатор кодека/Информация          : UTF-8 Plain Text
Заголовок                                : SDH
Язык                                     : English
Default                                  : Нет
Forced                                   : Нет
Меню
00:00:00.000                             : en:00:00:00.000
00:12:13.733                             : en:00:12:13.733
00:22:36.522                             : en:00:22:36.522
00:33:00.729                             : en:00:33:00.729
00:41:23.398                             : en:00:41:23.398
00:51:22.246                             : en:00:51:22.246
01:02:43.468                             : en:01:02:43.468
01:12:52.535                             : en:01:12:52.535
01:25:35.964                             : en:01:25:35.964

-

Скриншоты


-
Скачать

Скачать торрент!

Как скачивать? · Что такое торрент? · Рейтинг и ограничения

Сайт не распространяет и не хранит электронные версии произведений, а лишь предоставляет доступ к создаваемому пользователями каталогу ссылок на торрент-файлы, которые содержат только списки хеш-сумм

[Профиль] [ЛС]
Показать сообщения:    
Ответить на тему

Текущее время: Сегодня 16:06

Часовой пояс: GMT + 4



Вы не можете начинать темы
Вы не можете отвечать на сообщения
Вы не можете редактировать свои сообщения
Вы не можете удалять свои сообщения
Вы не можете голосовать в опросах
Вы не можете прикреплять файлы к сообщениям
Вы не можете скачивать файлы