Гоголь. Ближайший (Наталья Бондарчук) [2009, драма, биография, SATRip]

Ответить на тему
 
Автор Сообщение

user ®

Стаж: 7 лет 7 месяцев

Сообщений: 20008

Пост Пост: #1 от 15-Ноя-2013 23:40

[Цитировать]

Гоголь. Ближайший
Жанр: драма, биография
Год выпуска: 2009
Продолжительность: 01:45:06
Режиссёр: Наталья Бондарчук
В ролях: Евгений Редько, Николай Бурляев, Леонид Мозговой, Анастасия Заворотнюк, Мария Бурляева, Валентина Теличкина, Иван Мурадханов, Анна Левченко, Ольга Сумская, Радмила Щёголева, Алексей Богданович, Оксана Борбат, Игорь Днестрянский, Анастасия Добрынина, Андрей Мокульский, Егор Новокшонов, Софья Хилькова, Инга Шатова, Павел Тупиков
Описание: Фильм о последних днях Николая Васильевича с ретроспективой в его прошлое.
«Гоголь. Ближайший» навеяно знаменитой картиной «Явление Христа народу», где Иванов рисовал своего друга Николая Гоголя.
Писатель изображен ближайшим к Иисусу Христу (человек в красном).
Семпл
Качество видео: SATRip
Формат видео: AVI
Видео: 688x368 (1.87:1), 25 fps, XviD build 64 ~1049 kbps avg, 0.17 bit/pixel
Аудио: 48 kHz, AC3 Dolby Digital, 2/0 (L,R) ch, ~256.00 kbps avg

MediaInfo

General
Complete name : D:\MOVIE\Гоголь.Ближайший (2009).avi
Format : AVI
Format/Info : Audio Video Interleave
File size : 989 MiB
Duration : 1h 45mn
Overall bit rate : 1 315 Kbps
Writing library : VirtualDub build 32842/release
Video
ID : 0
Format : MPEG-4 Visual
Format profile : Advanced Simple@L5
Format settings, BVOP : Yes
Format settings, QPel : No
Format settings, GMC : No warppoints
Format settings, Matrix : Default (MPEG)
Codec ID : XVID
Codec ID/Hint : XviD
Duration : 1h 45mn
Bit rate : 1 050 Kbps
Width : 688 pixels
Height : 368 pixels
Display aspect ratio : 1.85:1
Frame rate : 25.000 fps
Color space : YUV
Chroma subsampling : 4:2:0
Bit depth : 8 bits
Scan type : Progressive
Compression mode : Lossy
Bits/(Pixel*Frame) : 0.166
Stream size : 789 MiB (80%)
Writing library : XviD 64
Audio
ID : 1
Format : AC-3
Format/Info : Audio Coding 3
Mode extension : CM (complete main)
Format settings, Endianness : Big
Codec ID : 2000
Duration : 1h 45mn
Bit rate mode : Constant
Bit rate : 256 Kbps
Channel(s) : 2 channels
Channel positions : Front: L R
Sampling rate : 48.0 KHz
Bit depth : 16 bits
Compression mode : Lossy
Stream size : 192 MiB (19%)
Alignment : Aligned on interleaves
Interleave, duration : 40 ms (1.00 video frame)
Interleave, preload duration : 512 ms

Скриншот c названием фильма

Скриншоты


Скачать

Скачать торрент!

Как скачивать? · Что такое торрент? · Рейтинг и ограничения

Сайт не распространяет и не хранит электронные версии произведений, а лишь предоставляет доступ к создаваемому пользователями каталогу ссылок на торрент-файлы, которые содержат только списки хеш-сумм

[Профиль] [ЛС]
Показать сообщения:    
Ответить на тему

Текущее время: Сегодня 16:30

Часовой пояс: GMT + 4



Вы не можете начинать темы
Вы не можете отвечать на сообщения
Вы не можете редактировать свои сообщения
Вы не можете удалять свои сообщения
Вы не можете голосовать в опросах
Вы не можете прикреплять файлы к сообщениям
Вы не можете скачивать файлы