Про мышонка, который хотел стать сильным (Тадеуш Павленко) [1983, Рисованный мультфильм, DVDRip]

Ответить на тему
 
Автор Сообщение

user ®

Стаж: 7 лет 7 месяцев

Сообщений: 20008

Пост Пост: #1 от 14-Ноя-2013 23:25

[Цитировать]

Про мышонка, который хотел стать сильным
Страна: CCCР
Жанр: Рисованный мультфильм
Продолжительность: 00:08:53
Год выпуска: 1983
Русские субтитры: нет
Режиссёр: Тадеуш Павленко
Описание: Жил на свете маленький мышонок. Каждую ночь мышонок пугался всего что движется. «Вот если бы я был сильным!» — мечтал мышонок. Он считал, что самым сильным на свете является солнце и отправился к нему, чтобы оно научило его, как стать сильным, но туча оказалась сильнее солнца, а ветер сильнее тучи, и каменная крепость сильнее ветра. На кого же ему быть похожим …
Доп. информация:
Выпущено:«Киевнаучфильм»
Сценарий:В.Капустян
Художник-постановщик:Н.Чурилов
Композитор:В.Шаповаленко
Директор:И.Мазепа
Качество: DVDRip
Формат: AVI
Видео: 704x528 (1.33:1), 25 fps, XviD MPEG-4 ~2297 kbps avg, 0.25 bit/pixel
Аудио: 48 kHz, AC3 Dolby Digital, 2/0 (L,R) ch, ~256.00 kbps avg
Субтитры: нет

Подробные технические данные

Format : AVIFormat/Info : Audio Video InterleaveFile size : 163 MiBDuration : 8mn 53sOverall bit rate : 2 564 KbpsWriting application : VirtualDubModRus 1.5.10.2 (build 2542/release)Copyright : Comment : DVDRip by dvdss
VideoID : 0Format : MPEG-4 VisualFormat profile : Advanced Simple@L5Format settings, BVOP : 2Format settings, QPel : NoFormat settings, GMC : No warppointsFormat settings, Matrix : CustomCodec ID : XVIDCodec ID/Hint : XviDDuration : 8mn 53sBit rate : 2 298 KbpsWidth : 704 pixelsHeight : 528 pixelsDisplay aspect ratio : 5:4Original display aspect ratio : 4:3Frame rate : 25.000 fpsColor space : YUVChroma subsampling : 4:2:0Bit depth : 8 bitsScan type : ProgressiveCompression mode : LossyBits/(Pixel*Frame) : 0.247Stream size : 146 MiB (90%)Writing library : XviD 65
AudioID : 1Format : AC-3Format/Info : Audio Coding 3Mode extension : CM (complete main)Format settings, Endianness : BigCodec ID : 2000Duration : 8mn 53sBit rate mode : ConstantBit rate : 256 KbpsChannel(s) : 2 channelsChannel positions : Front: L RSampling rate : 48.0 KHzBit depth : 16 bitsCompression mode : LossyStream size : 16.3 MiB (10%)Alignment : Split accross interleavesInterleave, duration : 40 ms (1.00 video frame)Interleave, preload duration : 500 ms

Скриншоты

Скачать

Скачать торрент!

Как скачивать? · Что такое торрент? · Рейтинг и ограничения

Сайт не распространяет и не хранит электронные версии произведений, а лишь предоставляет доступ к создаваемому пользователями каталогу ссылок на торрент-файлы, которые содержат только списки хеш-сумм

[Профиль] [ЛС]
Показать сообщения:    
Ответить на тему

Текущее время: Сегодня 12:14

Часовой пояс: GMT + 4



Вы не можете начинать темы
Вы не можете отвечать на сообщения
Вы не можете редактировать свои сообщения
Вы не можете удалять свои сообщения
Вы не можете голосовать в опросах
Вы не можете прикреплять файлы к сообщениям
Вы не можете скачивать файлы