Супер 8 / Super 8 (Джей Джей Абрамс / J.J. Abrams) [2011, США, фантастика, триллер, детектив, BDRip 720p] Dub (Blu-ray CEE) + Dub (R5 Ukr) + VO (В.Белов) + Sub (Rus, Ukr, Eng) + Original Eng

Ответить на тему
 
Автор Сообщение

user ®

Стаж: 7 лет 7 месяцев

Сообщений: 20008

Пост Пост: #1 от 14-Ноя-2013 23:25

[Цитировать]

Супер 8 / Super 8

Страна: США
Жанр: фантастика, триллер, детектив
Год выпуска: 2011
Продолжительность: 01:51:48-Перевод 1: Профессиональный (дублированный) Blu-ray CEE
Перевод 2: Одноголосый закадровый (В.Белов)
Перевод 3: Профессиональный (дублированный) R5 Ukrainian
Cубтитры: Russian, Russian (Forced), Russian (voronine), Ukrainian, English
Оригинальная аудиодорожка: английский-Режиссер: Джей Джей Абрамс / J.J. Abrams
В ролях: Джоэл Кортни, Эль Фаннинг, Джессика Так, Джоэль МакКиннон Миллер, Райан Ли, Захари Миллс, Райли Гриффитс, Гэбриел Бассо, Кайл Чандлер, Рон Элдард
Описание: Летом 1979 года несколько друзей из маленького городка, снимающие любительский фильм на камеру «Супер 8», стали свидетелями железнодорожной катастрофы. И вскоре они начинают подозревать, что это не было просто несчастным случаем. Странные исчезновения и необъяснимые события начинают происходить в городке, и местный шериф пытается разгадать их тайну — что-то куда более ужасающее, чем все могли себе представить.- -Доп. информация:
  • Сохранены оригинальные чаптеры как на Blu-ray.
  • За перевод В.Белова большое спасибо Slimka.-Сэмпл: http://multi-up.com/923416-Тип релиза: BDRip 720p
    Контейнер: MKV
    Видео: 1280x534 at 23.976, x264@L4.1, 2pass, ~6886 kbps avg
    Аудио 1: 48 kHz, AC3, 3/2 (L,C,R,l,r) + LFE ch, ~640.00 kbps avg | Профессиональный (дублированный) Blu-ray CEE |
    Аудио 2: 48 kHz, DTS, 3/2 (L,C,R,l,r) + LFE ch, ~1536.00 kbps avg | Original
    Аудио 3: 48 kHz, DTS, 3/2 (L,C,R,l,r) + LFE ch, ~1536.00 kbps avg | Одноголосый закадровый (В.Белов) | (отдельно)
    Аудио 4: 48 kHz, AC3, 3/2 (L,C,R,l,r) + LFE ch, ~448.00 kbps avg | Профессиональный (дублированный) R5 Ukrainian | (отдельно)
    Субтитры SRT: Russian, Russian (Forced), Russian (voronine), Ukrainian, English

MediaInfo

General
Unique ID : 249233693346847686343536799991777031196 (0xBB80A9CF1F6AED698A0E8201F009741C)
Complete name : D:\Super.8.2011.BDRip.720p.x264.mkv
Format : Matroska
Format version : Version 4 / Version 2
File size : 7.06 GiB
Duration : 1h 51mn
Overall bit rate : 9 039 Kbps
Movie name : Super 8
Encoded date : UTC 2013-11-12 17:20:02
Writing application : mkvmerge v6.5.0 ('Isn't she lovely') built on Oct 20 2013 12:50:05
Writing library : libebml v1.3.0 + libmatroska v1.4.1
Video
ID : 1
Format : AVC
Format/Info : Advanced Video Codec
Format profile : High@L4.1
Format settings, CABAC : Yes
Format settings, ReFrames : 12 frames
Codec ID : V_MPEG4/ISO/AVC
Duration : 1h 51mn
Bit rate : 6 886 Kbps
Width : 1 280 pixels
Height : 534 pixels
Display aspect ratio : 2.40:1
Frame rate mode : Constant
Frame rate : 23.976 fps
Color space : YUV
Chroma subsampling : 4:2:0
Bit depth : 8 bits
Scan type : Progressive
Bits/(Pixel*Frame) : 0.420
Stream size : 5.24 GiB (74%)
Writing library : x264 core 116 r2074 2641b9e
Encoding settings : cabac=1 / ref=12 / deblock=1:-3:-3 / analyse=0x3:0x133 / me=umh / subme=10 / psy=1 / psy_rd=0.90:0.05 / mixed_ref=1 / me_range=48 / chroma_me=1 / trellis=2 / 8x8dct=1 / cqm=0 / deadzone=21,11 / fast_pskip=0 / chroma_qp_offset=-3 / threads=9 / sliced_threads=0 / nr=0 / decimate=0 / interlaced=0 / bluray_compat=0 / constrained_intra=0 / bframes=7 / b_pyramid=2 / b_adapt=2 / b_bias=0 / direct=3 / weightb=1 / open_gop=0 / weightp=2 / keyint=360 / keyint_min=2 / scenecut=40 / intra_refresh=0 / rc_lookahead=60 / rc=2pass / mbtree=1 / bitrate=6886 / ratetol=1.0 / qcomp=0.70 / qpmin=0 / qpmax=69 / qpstep=4 / cplxblur=20.0 / qblur=0.5 / ip_ratio=1.40 / aq=2:0.95
Language : English
Default : Yes
Forced : No
Audio #1
ID : 2
Format : AC-3
Format/Info : Audio Coding 3
Mode extension : CM (complete main)
Format settings, Endianness : Big
Codec ID : A_AC3
Duration : 1h 51mn
Bit rate mode : Constant
Bit rate : 640 Kbps
Channel count : 6 channels
Channel positions : Front: L C R, Side: L R, LFE
Sampling rate : 48.0 KHz
Bit depth : 16 bits
Compression mode : Lossy
Stream size : 512 MiB (7%)
Title : AC3 5.1 @ 640 kbps - Дубляж
Language : Russian
Default : Yes
Forced : No
Audio #2
ID : 3
Format : DTS
Format/Info : Digital Theater Systems
Mode : 16
Format settings, Endianness : Big
Codec ID : A_DTS
Duration : 1h 51mn
Bit rate mode : Constant
Bit rate : 1 510 Kbps
Channel count : 6 channels
Channel positions : Front: L C R, Side: L R, LFE
Sampling rate : 48.0 KHz
Bit depth : 24 bits
Compression mode : Lossy
Stream size : 1.18 GiB (17%)
Language : English
Default : No
Forced : No
Text #1
ID : 4
Format : UTF-8
Codec ID : S_TEXT/UTF8
Codec ID/Info : UTF-8 Plain Text
Title : Forced
Language : Russian
Default : Yes
Forced : No
Text #2
ID : 5
Format : UTF-8
Codec ID : S_TEXT/UTF8
Codec ID/Info : UTF-8 Plain Text
Title : R5
Language : Russian
Default : No
Forced : No
Text #3
ID : 6
Format : UTF-8
Codec ID : S_TEXT/UTF8
Codec ID/Info : UTF-8 Plain Text
Title : Voronine
Language : Russian
Default : No
Forced : No
Text #4
ID : 7
Format : UTF-8
Codec ID : S_TEXT/UTF8
Codec ID/Info : UTF-8 Plain Text
Title : R5
Language : Ukrainian
Default : No
Forced : No
Text #5
ID : 8
Format : UTF-8
Codec ID : S_TEXT/UTF8
Codec ID/Info : UTF-8 Plain Text
Language : English
Default : No
Forced : No
Menu
00:00:00.000 : en:Chapter.01
00:07:01.504 : en:Chapter.02
00:11:33.275 : en:Chapter.03
00:19:25.164 : en:Chapter.04
00:26:43.518 : en:Chapter.05
00:33:36.514 : en:Chapter.06
00:40:30.511 : en:Chapter.07
00:45:42.156 : en:Chapter.08
00:51:57.114 : en:Chapter.09
00:56:59.958 : en:Chapter.10
01:02:24.365 : en:Chapter.11
01:08:12.505 : en:Chapter.12
01:13:30.906 : en:Chapter.13
01:18:33.875 : en:Chapter.14
01:25:31.334 : en:Chapter.15
01:30:25.378 : en:Chapter.16
01:38:20.352 : en:Chapter.17
01:43:37.836 : en:Chapter.18

Скриншоты

Скачать

Скачать торрент!

Как скачивать? · Что такое торрент? · Рейтинг и ограничения

Сайт не распространяет и не хранит электронные версии произведений, а лишь предоставляет доступ к создаваемому пользователями каталогу ссылок на торрент-файлы, которые содержат только списки хеш-сумм

[Профиль] [ЛС]
Показать сообщения:    
Ответить на тему

Текущее время: Сегодня 19:25

Часовой пояс: GMT + 4



Вы не можете начинать темы
Вы не можете отвечать на сообщения
Вы не можете редактировать свои сообщения
Вы не можете удалять свои сообщения
Вы не можете голосовать в опросах
Вы не можете прикреплять файлы к сообщениям
Вы не можете скачивать файлы