Команда Мечты / Les seigneurs (Оливье Даан / Olivier Dahan) [2012, Франция, комедия, спорт, BDRip 720p] DVO (Jetvis Studio) + Original Fre

Ответить на тему
 
Автор Сообщение

user ®

Стаж: 7 лет 7 месяцев

Сообщений: 20008

Пост Пост: #1 от 14-Ноя-2013 23:25

[Цитировать]

Команда Мечты / Les seigneurs
Страна: Франция
Студия: Warner Bros, Canal+, TF1 Films Production
Жанр: Комедия, спорт
Год выпуска: 2012
Продолжительность: 01:36:56
Перевод: Двухголосый закадровый (Jetvis Studio)
Cубтитры: нет
Режиссер: Оливье Даан / Olivier Dahan
В ролях: Хосе Гарсия, Омар Си, Жан-Пьер Марьель, Франк Дюбоск, Гад Эльмалех, Джои Старр, Рамзи Бедиа, Жан Рено, Сами Амезьян, Клементин Баэрт, Фредерик Бель
Релиз:
Перевод: Иван Назаров
Роли озвучивали: Иван Назаров, Екатерина Дмитрова.
Описание: Патрик — в прошлом известный футболист и тренер, а сейчас просто пьяница. Единственная работа, которую он может получить — это тренер любительской футбольной команды на севере Франции. И отказаться нельзя, если у него не будет работы, он лишится права опеки над дочерью. Дела на футбольном поприще у почтальянов, рубаков и бухгалтеров идут неважно. И тогда Патрику в голову приходит гениальная мысль — пригласить бывших футбольных звезд, уже повесивших бутсы на гвоздь, в команду. Вас ждут веселые приключения и незабываемые футбольные баталии! Тип релиза: BDRip 720p
Контейнер: MKV
Видео: AVC, 1280x640, 4943 kbps, 23,976 fps
Аудио: AC3, 2ch, 192 kbps, 48.0 kHz [RUS]
Аудио: DTS, 6ch, 1509 kbps, 48.0 kHz [FRE]

MediaInfo

Общее
Уникальный идентификатор : 194166003918046910220571351652446303993 (0x92130319D2AF9D5EBCD59A83D294F6F9)
Полное имя : C:\Торрент\Les.Seigneurs.2012.BDRip.Jetvis.Studio.mkv
Формат : Matroska
Версия формата : Version 4 / Version 2
Размер файла : 4,50 Гбайт
Продолжительность : 1 ч. 36 м.
Общий поток : 6646 Кбит/сек
Дата кодирования : UTC 2013-11-14 15:33:06
Программа кодирования : mkvmerge v6.5.0 ('Isn't she lovely') built on Oct 20 2013 12:50:05
Библиотека кодирования : libebml v1.3.0 + libmatroska v1.4.1
Видео
Идентификатор : 1
Формат : AVC
Формат/Информация : Advanced Video Codec
Профиль формата : High@L4.1
Параметр CABAC формата : Да
Параметр ReFrames формата : 5 кадров
Идентификатор кодека : V_MPEG4/ISO/AVC
Продолжительность : 1 ч. 36 м.
Битрейт : 4943 Кбит/сек
Ширина : 1280 пикселей
Высота : 640 пикселей
Соотношение сторон : 2,000
Режим частоты кадров : Постоянный
Частота кадров : 23,976 кадра/сек
Цветовое пространство : YUV
Субдискретизация насыщенности : 4:2:0
Битовая глубина : 8 бит
Тип развёртки : Прогрессивная
Бит/(Пиксели*Кадры) : 0.252
Размер потока : 3,26 Гбайт (72%)
Библиотека кодирования : x264 core 129 r2230 1cffe9f
Настройки программы : cabac=1 / ref=5 / deblock=1:0:0 / analyse=0x3:0x113 / me=umh / subme=8 / psy=1 / psy_rd=1.00:0.00 / mixed_ref=1 / me_range=16 / chroma_me=1 / trellis=1 / 8x8dct=1 / cqm=0 / deadzone=21,11 / fast_pskip=1 / chroma_qp_offset=-2 / threads=12 / lookahead_threads=2 / sliced_threads=0 / nr=0 / decimate=1 / interlaced=0 / bluray_compat=0 / constrained_intra=0 / bframes=3 / b_pyramid=2 / b_adapt=2 / b_bias=0 / direct=3 / weightb=1 / open_gop=0 / weightp=2 / keyint=240 / keyint_min=24 / scenecut=40 / intra_refresh=0 / rc_lookahead=50 / rc=2pass / mbtree=1 / bitrate=4943 / ratetol=1.0 / qcomp=0.60 / qpmin=0 / qpmax=69 / qpstep=4 / cplxblur=20.0 / qblur=0.5 / ip_ratio=1.40 / aq=1:1.00
Язык : English
Default : Да
Forced : Нет
Аудио #1
Идентификатор : 2
Формат : AC-3
Формат/Информация : Audio Coding 3
Расширение режима : CM (complete main)
Параметр Endianness формата : Big
Идентификатор кодека : A_AC3
Продолжительность : 1 ч. 36 м.
Вид битрейта : Постоянный
Битрейт : 192 Кбит/сек
Каналы : 2 канала
Расположение каналов : Front: L R
Частота : 48,0 КГц
Битовая глубина : 16 бит
Метод сжатия : С потерями
Размер потока : 133 Мбайт (3%)
Заголовок : DVO Jetvis Studio
Язык : Russian
Default : Нет
Forced : Нет
Аудио #2
Идентификатор : 3
Формат : DTS
Формат/Информация : Digital Theater Systems
Режим : 16
Параметр Endianness формата : Big
Идентификатор кодека : A_DTS
Продолжительность : 1 ч. 36 м.
Вид битрейта : Постоянный
Битрейт : 1509 Кбит/сек
Каналы : 6 каналов
Расположение каналов : Front: L C R, Side: L R, LFE
Частота : 48,0 КГц
Битовая глубина : 24 бит
Метод сжатия : С потерями
Размер потока : 1,02 Гбайт (23%)
Заголовок : Fre
Язык : French
Default : Нет
Forced : Нет

Скриншоты

Скачать

Скачать торрент!

Как скачивать? · Что такое торрент? · Рейтинг и ограничения

Сайт не распространяет и не хранит электронные версии произведений, а лишь предоставляет доступ к создаваемому пользователями каталогу ссылок на торрент-файлы, которые содержат только списки хеш-сумм

[Профиль] [ЛС]
Показать сообщения:    
Ответить на тему

Текущее время: Сегодня 20:39

Часовой пояс: GMT + 4



Вы не можете начинать темы
Вы не можете отвечать на сообщения
Вы не можете редактировать свои сообщения
Вы не можете удалять свои сообщения
Вы не можете голосовать в опросах
Вы не можете прикреплять файлы к сообщениям
Вы не можете скачивать файлы