Токийская семья / Tokyo Family (Ёдзи Ямада / Yoji Yamada) [2013, Япония, Драма, DVDRip] VO D.I.M.

Ответить на тему
 
Автор Сообщение

user ®

Стаж: 11 лет

Сообщений: 15151

Пост Пост: #1 от 14-Ноя-2013 14:15

[Цитировать]

Токийская семья / Tokyo Family
Страна: Япония
Жанр: Драма
Год выпуска: 2013
Продолжительность: 02:26:08
Перевод: Одноголосый закадровый D.I.M.
Cубтитры: нет
Режиссер: Ёдзи Ямада / Yoji Yamada
В ролях: Ю Аои / Yu Aoi
Сатоси Цумабуки / Satoshi Tsumabuki
Кадзуко Ёсиюки / Kazuko Yoshiyuki
Юи Нацукава / Yui Natsukawa
Дзюн Фубуки / Jun Fubuki
Масахико Нисимура / Masahiko Nishimura
Исао Хасидзуми / Isao Hashizume
Описание: Пожилая супружеская пара живёт в дали от своих детей,
которые все перебрались в Токио.
Они решаются поехать в Токио. У них трое детей.
Старший сын Коити управляет частной клиникой.
Одна дочь Сигеко держит салон красоты.
Младший сын Сёдзи работает оформителем сцены.
Дети так заняты, что у них совершенно нет времени,
чтобы уделить его приехавшим погостить родителям.
Но родители всё равно переживают и любят своих детей...
Это семьдесят четвёртый фильм с моим переводом и озвучкой, выложенный здесь.
Сэмпл: http://multi-up.com/923265
Качество видео: DVDRip
Формат видео: AVI
Видео: 720*400 (16:9), 23,976 fps, MPEG-4 Visual (XviD) ~ 1203 kbps avg, 0.174 bit/pixel
Аудио: MPEG Audio Layer 3, 48000Hz, stereo, 128kbps

MediaInfo

Общее
Полное имя : D:\TORENT\РАЗДАЧИ (РИПЫ)\TOKYO FAMILY.avi
Формат : AVI
Формат/Информация : Audio Video Interleave
Размер файла : 1,37 Гбайт
Продолжительность : 2 ч. 26 м.
Общий поток : 1340 Кбит/сек
Программа кодирования : VirtualDubModRus 1.5.10.2 (build 2542/release)
Библиотека кодирования : VirtualDubMod build 2542/release
Видео
Идентификатор : 0
Формат : MPEG-4 Visual
Профиль формата : Advanced Simple@L5
Параметр BVOP формата : 1
Параметр QPel формата : Нет
Параметр GMC формата : Без точки перехода
Параметр матрицы формата : Выборочная
Идентификатор кодека : XVID
Идентификатор кодека/Подсказка : XviD
Продолжительность : 2 ч. 26 м.
Битрейт : 1203 Кбит/сек
Ширина : 720 пикс.
Высота : 400 пикс.
Соотношение сторон : 16:9
Частота кадров : 23,976 кадр/сек
Цветовое пространство : YUV
Подвыборка цветности : 4:2:0
Битовая глубина : 8 бит
Тип развёртки : Прогрессивная
Метод сжатия : С потерями
Бит/(Пиксели*Кадры) : 0.174
Размер потока : 1,23 Гбайт (90%)
Библиотека кодирования : XviD 63
Аудио
Идентификатор : 1
Формат : MPEG Audio
Версия формата : Version 1
Профиль формата : Layer 3
Режим : Joint stereo
Расширение режима : MS Stereo
Идентификатор кодека : 55
Идентификатор кодека/Подсказка : MP3
Продолжительность : 2 ч. 26 м.
Вид битрейта : Постоянный
Битрейт : 128 Кбит/сек
Канал(ы) : 2 канала(ов)
Частота : 48,0 КГц
Метод сжатия : С потерями
Размер потока : 134 Мбайт (10%)
Выравнивание : Соединение по промежуткам
Продолжительность промежутка : 42 мс. (1,00 видеокадр)
Время предзагрузки промежутка : 504 ms
Язык : Japanese

Скриншот c названием фильма

Скриншоты

Скачать

Скачать торрент! Токийская семья / Tokyo Family (Ёдзи Ямада / Yoji Yamada) [2013, Япония, Драма, DVDRip] VO D.I.M.

Как скачивать? · Что такое торрент? · Рейтинг и ограничения

Сайт не распространяет и не хранит электронные версии произведений, а лишь предоставляет доступ к создаваемому пользователями каталогу ссылок на торрент-файлы, которые содержат только списки хеш-сумм

[Профиль] [ЛС]
Показать сообщения:    
Ответить на тему

Текущее время: Сегодня 19:25

Часовой пояс: GMT + 4



Вы не можете начинать темы
Вы не можете отвечать на сообщения
Вы не можете редактировать свои сообщения
Вы не можете удалять свои сообщения
Вы не можете голосовать в опросах
Вы не можете прикреплять файлы к сообщениям
Вы не можете скачивать файлы