Пчелиная матка / Queen Bee / Joobachi (Кон Итикава / Kon Ichikawa) [1978, Япония, детектив, триллер, драма, DVDRip] Sub Rus

Ответить на тему
 
Автор Сообщение

user ®

Стаж: 11 лет

Сообщений: 15151

Пост Пост: #1 от 14-Ноя-2013 11:05

[Цитировать]

Пчелиная матка / Queen Bee / Joobachi / 女王蜂
Страна: Япония
Жанр: детектив, триллер, драма
Год выпуска: 1978
Продолжительность: 02:19:03
Перевод: Субтитры - перевод с японского дед_сто_лет©
Cубтитры: русские
Оригинальная аудиодорожка: японский
Режиссер: Кон Итикава / Kon Ichikawa
В ролях: Кодзи Исидзака, Кэйко Киси, Ёко Цукаса, Миэко Такаминэ, Киэ Накаи, Масая Оки, Мицуко Кусабуэ, Ёсико Сакагути, Мидори Хагио, Такэси Като, Хидэдзи Отаки, Сигэру Камияма, Сёдзи Кобаяси, Цуёси Сасаки, Кацухико Сасаки, Хисаси Накадзима, Хироюки Такано, Нобуюки Исида, Токики Фудзио, Рэйдзэй Кимихиро, Тору Такэути, Ханауэ Акира, Каёко Сираиси, Норихэй Мики, Дзюндзабуро Бан, Тацуя Накадай
Описание: Очередная история по детективу Сэйси Ёкомидзо. Коскэ Киндаити расследует серию убийств, связанную с событиями произошедшими в деревне Гэккин на полуострове Изду за 19 лет до описываемого времени. Как всегда в действие вплетены многочисленные япоские традиции, игра на лунной гитаре, театр кабуки и чайная церемония во время любования кленами.©
> > > > >
Качество видео: DVDRip
Формат видео: AVI
Видео: 720x544 (1.32:1), 23.976 fps, XviD build 50 ~1309 kbps avg, 0.14 bit/pixel
Аудио: 48 kHz, MPEG Layer 3, 2 ch, ~192.00 kbps avg
Формат субтитров: softsub (SRT)
Доп. информация о субтитрах: дед_сто_лет

MediaInfo

General
Complete name : C:\Torrents\[ASIA]\Queen bee.1978.Rus\Queen Bee.avi
Format : AVI
Format/Info : Audio Video Interleave
File size : 1.46 GiB
Duration : 2h 19mn
Overall bit rate : 1 508 Kbps
Writing application : VirtualDubMod 1.5.4.1 (build 2178/release)
Writing library : VirtualDubMod build 2178/release
Video
ID : 0
Format : MPEG-4 Visual
Format profile : Advanced Simple@L5
Format settings, BVOP : No
Format settings, QPel : No
Format settings, GMC : No warppoints
Format settings, Matrix : Custom
Codec ID : XVID
Codec ID/Hint : XviD
Duration : 2h 19mn
Bit rate : 1 309 Kbps
Width : 720 pixels
Height : 544 pixels
Display aspect ratio : 4:3
Frame rate : 23.976 fps
Color space : YUV
Chroma subsampling : 4:2:0
Bit depth : 8 bits
Scan type : Progressive
Compression mode : Lossy
Bits/(Pixel*Frame) : 0.139
Stream size : 1.27 GiB (87%)
Writing library : XviD 1.2.1 (UTC 2008-12-04)
Audio
ID : 1
Format : MPEG Audio
Format version : Version 1
Format profile : Layer 3
Mode : Joint stereo
Mode extension : MS Stereo
Codec ID : 55
Codec ID/Hint : MP3
Duration : 2h 19mn
Bit rate mode : Constant
Bit rate : 192 Kbps
Channel(s) : 2 channels
Sampling rate : 48.0 KHz
Compression mode : Lossy
Stream size : 191 MiB (13%)
Alignment : Aligned on interleaves
Interleave, duration : 83 ms (2.00 video frames)
Interleave, preload duration : 504 ms
Writing library : LAME3.98r
Encoding settings : -m j -V 4 -q 2 -lowpass 18.6 -b 192
Language : Japanese

Комори Ясу из пьесы =Yowa Nasake Ukina no Yokogushi=

Скриншот c названием фильма

Скриншоты

Скачать

Скачать торрент! Пчелиная матка / Queen Bee / Joobachi (Кон Итикава / Kon Ichikawa) [1978, Япония, детектив, триллер, драма, DVDRip] Sub Rus

Как скачивать? · Что такое торрент? · Рейтинг и ограничения

Сайт не распространяет и не хранит электронные версии произведений, а лишь предоставляет доступ к создаваемому пользователями каталогу ссылок на торрент-файлы, которые содержат только списки хеш-сумм

[Профиль] [ЛС]
Показать сообщения:    
Ответить на тему

Текущее время: Сегодня 02:56

Часовой пояс: GMT + 4



Вы не можете начинать темы
Вы не можете отвечать на сообщения
Вы не можете редактировать свои сообщения
Вы не можете удалять свои сообщения
Вы не можете голосовать в опросах
Вы не можете прикреплять файлы к сообщениям
Вы не можете скачивать файлы