Ночной поезд до Лиссабона / Night Train to Lisbon (Билле Аугуст / Bille August) [2013, Германия, Швейцария, Португалия, триллер, мелодрама, детектив, BDRip 720p] [ITA] DVO + Original eng + Sub rus, eng

Ответить на тему
 
Автор Сообщение

user ®

Стаж: 7 лет 7 месяцев

Сообщений: 20008

Пост Пост: #1 от 13-Ноя-2013 23:20

[Цитировать]

Ночной поезд до Лиссабона / Night Train to Lisbon
Страна: Германия, Швейцария, Португалия
Жанр: триллер, мелодрама, детектив
Год выпуска: 2013
Продолжительность: 01:51:37
Перевод: Любительский (двухголосый закадровый) |
Cубтитры: английские, русские |
Оригинальная аудиодорожка: английский
Режиссер: Билле Аугуст / Bille August
В ролях: Джереми Айронс, Мелани Лоран, Джек Хьюстон, Мартина Гедек, Лена Улин, Аугуст Диль, Бруно Ганц, Кристофер Ли, Шарлотта Рэмплинг, Том Кортни
Описание: Раймунд Григориус, швейцарский профессор древних языков, спасает португальскую женщину от самоубийства и находит у нее книгу, написанную португальским автором Амадеу ди Праду, о сопротивлении диктаторскому режиму Антонио ди Оливейра Салазара. Полностью поглощенный книгой главный герой посвящает свою жизнь изучению португальской истории в целом, и в часности работам Амадеу ди Праду...

Тип релиза: BDRip 720p (от Cristi) | sample
Контейнер: MKV
Видео кодек: x264
Видео: AVC 1278x720 (16:9), 24 fps, ~5700 Kbps, 0.25 bit/pixel
Аудио #1: Russian AC3 6ch 48kHz 448Kbps | DVO HamsterStudio
Аудио #2: English AC3 6ch 48kHz 640Kbps | Original
Формат субтитров: softsub (SRT)
Главы: есть

MediaInfo | x264

x264

x264 [info]: frame I:1513 Avg QP:14.68 size:120549
x264 [info]: frame P:30445 Avg QP:16.25 size: 51841
x264 [info]: frame B:128768 Avg QP:17.10 size: 23649
x264 [info]: consecutive B-frames: 1.4% 1.0% 4.9% 11.5% 14.1% 52.3% 7.8% 1.9% 5.1%
General
Complete name : D:\...\Night.Train.to.Lisbon.2013.ITA.720p.BluRay.x264.DD5.1.Rus.Eng-Cristi.mkv
Format : Matroska
Format version : Version 4 / Version 2
File size : 5.33 GiB
Duration : 1h 51mn
Overall bit rate : 6 830 Kbps
Movie name : Night.Train.to.Lisbon.2013.ITA.720p.BluRay.x264.DD5.1.Rus.Eng-Cristi
Encoded date : UTC 2013-11-12 23:54:31
Writing application : mkvmerge v6.2.0 ('Promised Land') built on Apr 28 2013 12:22:01
Writing library : libebml v1.3.0 + libmatroska v1.4.0
Video
ID : 1
Format : AVC
Format/Info : Advanced Video Codec
Format profile : High@L4.1
Format settings, CABAC : Yes
Format settings, ReFrames : 9 frames
Codec ID : V_MPEG4/ISO/AVC
Duration : 1h 51mn
Bit rate : 5 607 Kbps
Width : 1 278 pixels
Height : 720 pixels
Display aspect ratio : 16:9
Frame rate mode : Constant
Frame rate : 24.000 fps
Color space : YUV
Chroma subsampling : 4:2:0
Bit depth : 8 bits
Scan type : Progressive
Bits/(Pixel*Frame) : 0.254
Stream size : 4.37 GiB (82%)
Title : Cristi
Writing library : x264 core 138 r2358kMod 9e941d1
Encoding settings : cabac=1 / ref=9 / deblock=1:-3:-3 / analyse=0x3:0x133 / me=umh / subme=10 / psy=1 / fade_compensate=0.00 / psy_rd=1.05:0.00 / mixed_ref=1 / me_range=24 / chroma_me=1 / trellis=2 / 8x8dct=1 / cqm=0 / deadzone=21,11 / fast_pskip=0 / chroma_qp_offset=-2 / threads=3 / lookahead_threads=1 / sliced_threads=0 / nr=0 / decimate=0 / interlaced=0 / bluray_compat=0 / constrained_intra=0 / bframes=8 / b_pyramid=2 / b_adapt=2 / b_bias=0 / direct=3 / weightb=1 / open_gop=0 / weightp=2 / keyint=250 / keyint_min=23 / scenecut=40 / intra_refresh=0 / rc=crf / mbtree=0 / crf=16.2000 / qcomp=0.60 / qpmin=0 / qpmax=69 / qpstep=4 / ip_ratio=1.20 / pb_ratio=1.10 / aq=1:0.60
Language : English
Default : Yes
Forced : No
Matrix coefficients : BT.709
Audio #1
ID : 2
Format : AC-3
Format/Info : Audio Coding 3
Mode extension : CM (complete main)
Format settings, Endianness : Big
Codec ID : A_AC3
Duration : 1h 51mn
Bit rate mode : Constant
Bit rate : 448 Kbps
Channel(s) : 6 channels
Channel positions : Front: L C R, Side: L R, LFE
Sampling rate : 48.0 KHz
Bit depth : 16 bits
Compression mode : Lossy
Stream size : 358 MiB (7%)
Title : DVO HamsterStudio
Language : Russian
Default : Yes
Forced : No
Audio #2
ID : 3
Format : AC-3
Format/Info : Audio Coding 3
Mode extension : CM (complete main)
Format settings, Endianness : Big
Codec ID : A_AC3
Duration : 1h 51mn
Bit rate mode : Constant
Bit rate : 640 Kbps
Channel(s) : 6 channels
Channel positions : Front: L C R, Side: L R, LFE
Sampling rate : 48.0 KHz
Bit depth : 16 bits
Compression mode : Lossy
Stream size : 511 MiB (9%)
Title : Original
Language : English
Default : No
Forced : No
Text #1
ID : 4
Format : UTF-8
Codec ID : S_TEXT/UTF8
Codec ID/Info : UTF-8 Plain Text
Title : kon2011
Language : Russian
Default : No
Forced : No
Text #2
ID : 5
Format : UTF-8
Codec ID : S_TEXT/UTF8
Codec ID/Info : UTF-8 Plain Text
Language : English
Default : No
Forced : No
Menu
00:00:00.000 : en:00:00:00.000
00:10:50.458 : en:00:10:50.458
00:20:46.750 : en:00:20:46.750
00:31:33.417 : en:00:31:33.417
00:42:18.375 : en:00:42:18.375
00:53:38.792 : en:00:53:38.792
01:02:27.583 : en:01:02:27.583
01:14:45.792 : en:01:14:45.792
01:27:48.250 : en:01:27:48.250
01:44:50.333 : en:01:44:50.333

Скриншоты

source vs Cristi



Скачать

Скачать торрент!

Как скачивать? · Что такое торрент? · Рейтинг и ограничения

Сайт не распространяет и не хранит электронные версии произведений, а лишь предоставляет доступ к создаваемому пользователями каталогу ссылок на торрент-файлы, которые содержат только списки хеш-сумм

[Профиль] [ЛС]
Показать сообщения:    
Ответить на тему

Текущее время: Сегодня 00:16

Часовой пояс: GMT + 4



Вы не можете начинать темы
Вы не можете отвечать на сообщения
Вы не можете редактировать свои сообщения
Вы не можете удалять свои сообщения
Вы не можете голосовать в опросах
Вы не можете прикреплять файлы к сообщениям
Вы не можете скачивать файлы