Маска / The Mask (Чак Рассел / Chuck Russell) [1994 г., США, фэнтези, мелодрама, комедия, BDRip 1080p] 7x MVO + DVO + 4x AVO + 3x VO + Original Eng + Subs (Rus, Eng)

Ответить на тему
 
Автор Сообщение

user ®

Стаж: 7 лет 7 месяцев

Сообщений: 20008

Пост Пост: #1 от 13-Ноя-2013 23:20

[Цитировать]

Маска / The Mask«Stanley Ipkiss is not the man he used to be»- -Год выпуска: 1994
Страна: США
Жанр: фэнтези, мелодрама, комедия
Продолжительность: 01:41:12
Перевод №1: Профессиональный (многоголосый закадровый, Киномания)
Перевод №2: Профессиональный (многоголосый закадровый, R5 CP Digital)
Перевод №3: Профессиональный (многоголосый закадровый, М.Латышев + люди)
Перевод №4: Профессиональный (многоголосый закадровый, НТВ+)
Перевод №5: Профессиональный (многоголосый закадровый, НТВ/ТНТ/Ren-TV)
Перевод №6: Профессиональный (многоголосый закадровый, TV1000)
Перевод №7: Профессиональный (многоголосый закадровый, Премьер Видео Фильм)
Перевод №8: Профессиональный (двухголосый закадровый, Superbit)
Перевод №9: Авторский (одноголосый закадровый, В.Горчаков)
Перевод №10: Авторский (одноголосый закадровый, П.Санаев)
Перевод №11: Авторский (одноголосый закадровый, Ю.Живов)
Перевод №12: Одноголосый (закадровый, Б.Федоров)
Перевод №13: Авторский (одноголосый закадровый, CDV)
Перевод №14: Одноголосый (закадровый, неизвестная женщина)
Перевод №15: Одноголосый (закадровый, неизвестный мужчина)
Субтитры: Русские, Английские-Режиссер: Чак Рассел / Chuck Russell
Сценарий: Майк Уэрб / Mike Werb, Майкл Фэллон / Michael Fallon, Марк Верхайден / Mark Verheiden,
Продюсер: Чак Рассел / Chuck Russell, Роберт Энгелман / Robert Engelman, Анн Бюргюн / Ann Burgund, Майкл Де Лука / Michael De Luca, Карла Фрай / Carla Fry, Майк Ричардсон / Mike Richardson
Оператор: Джон Р. Леонетти / John R. Leonetti
Композитор: Рэнди Эдельман / Randy Edelman
В ролях: Джим Керри (Stanley Ipkiss / The Mask), Кэмерон Диаз (Tina Carlyle), Питер Ригерт (Lt. Mitch Kellaway), Питер Грин (Dorian Tyrell), Эми Ясбек (Peggy Brandt), Ричард Джени (Charlie Schumaker), Орестес Матасена (Niko), Тим Бэгли (Irv Ripley), Нэнси Фиш (Mrs. Peenman), Джонни Уильямс (Burt Ripley), Рег Э. Кэти(Freeze), Джим Дуган (Detective Doyle)-Описание: Скромный, застенчивый служащий банка закомплексован настолько, что чувствует себя неуверенно с красивыми девушками. Волею судьбы к нему попадает волшебная маска, и Стенли Ипкис приобретает способность превращаться в неуязвимое мультяшное существо из забавных комиксов.
Он становится супергероем, готовым бороться с преступностью, как Бэтмен. Итак, днем он по-прежнему скромный и незадачливый служащий, а по ночам — супермен...
-
Качество: Blu-ray Rip 1080p
Формат: MKV
Видео: MPEG-4 AVC (H264), High Profile 4.1, 1920x1080, 23.976 fps, ~12600 kbps avg, bit/(pixel*frame) 0.253
Аудио №1: Russian: 48 kHz, DTS, 3/2 (L,C,R,l,r) + LFE ch, ~1510.00 kbps avg //многоголосый закадровый (Киномания)
Аудио №2: Russian: 48 kHz, AC3, 3/2 (L,C,R,l,r) + LFE ch, ~448.00 kbps avg //многоголосый закадровый (R5 CP Digital)
Аудио №3: Russian: 48 kHz, AC3, 3/2 (L,C,R,l,r) + LFE ch, ~384.00 kbps avg //многоголосый закадровый (М.Латышев + люди)
Аудио №4: Russian: 48 kHz, AC3, 2.0 (L,R) ch, ~192.00 kbps avg //многоголосый закадровый (НТВ+)
Аудио №5: Russian: 48 kHz, AC3, 2.0 (L,R) ch, ~192.00 kbps avg //многоголосый закадровый (НТВ/ТНТ/Ren-TV)
Аудио №6: Russian: 48 kHz, AC3, 2.0 (L,R) ch, ~192.00 kbps avg //многоголосый закадровый (TV1000)
Аудио №7: Russian: 48 kHz, AC3, 1.0 (C) ch, ~192.00 kbps avg //многоголосый закадровый (Премьер Видео Фильм)
Аудио №8: Russian: 48 kHz, DTS, 3/2 (L,C,R,l,r) + LFE ch, ~755.00 kbps avg //двухголосый закадровый (Superbit)
Аудио №9: Russian: 48 kHz, DTS, 3/2 (L,C,R,l,r) + LFE ch, ~1510.00 kbps avg //одноголосый закадровый (В.Горчаков)
Аудио №10: Russian: 48 kHz, DTS, 3/2 (L,C,R,l,r) + LFE ch, ~1510.00 kbps avg //одноголосый закадровый (П.Санаев)
Аудио №11: Russian: 48 kHz, DTS, 3/2 (L,C,R,l,r) + LFE ch, ~755.00 kbps avg //одноголосый закадровый (Ю.Живов)
Аудио №12: Russian: 48 kHz, AC3, 3/2 (L,C,R,l,r) + LFE ch, ~448.00 kbps avg //одноголосый закадровый (Б.Федоров)
Аудио №13: Russian: 48 kHz, AC3, 3/2 (L,C,R,l,r) + LFE ch, ~384.00 kbps avg //одноголосый закадровый (CDV)
Аудио №14: Russian: 48 kHz, AC3, 2.0 (L,R) ch, ~256.00 kbps avg //одноголосый закадровый (неизвестная)
Аудио №15: Russian: 48 kHz, AC3, 1.0 (C) ch, ~192.00 kbps avg //одноголосый закадровый (неизвестный)
Аудио №16: Russian: 48 kHz, AC3, 2.0 (L,R) ch, ~96.00 kbps avg //одноголосый закадровый (Комментарии режиссера Чака Рассела)
Аудио №17: Russian: 48 kHz, AC3, 2.0 (L,R) ch, ~96.00 kbps avg //одноголосый закадровый (Комментарии режиссера и продюсеров)
Аудио №18: English: 48 kHz, DTS, 3/2 (L,C,R,l,r) + LFE ch, ~1510.00 kbps avg //original
Аудио №19: English: 48 kHz, AC3, 2.0 (L,R) ch, ~192.00 kbps avg //original (Commentary by director Chuck Russell)
Аудио №20: English: 48 kHz, AC3, 2.0 (L,R) ch, ~192.00 kbps avg //original (Commentary by director and producers)
Субтитры: Russian (надписи и песни), Russian (R5), Russian (Ray), Russian (Subzero), English (Softsub SRT)
Навигация по главам: есть-

MediaInfo

I:\movie HD III\The Mask [Маска] (1994) 1920x1080 BDRip RusEngSubsChpt.mkv
General
Unique ID : 236500359381266380999301457824314856279 (0xB1EC4FF962B71C37B2FBC66A43C89357)
Complete name : I:\movie HD III\The Mask [Маска] (1994) 1920x1080 BDRip RusEngSubsChpt.mkv
Format : Matroska
Format version : Version 4 / Version 2
File size : 16.7 GiB
Duration : 1h 41mn
Overall bit rate : 23.6 Mbps
Movie name : -=RbM=-
Encoded date : UTC 2013-11-13 15:08:19
Writing application : mkvmerge v6.5.0 ('Isn't she lovely') built on Oct 20 2013 12:50:05
Writing library : libebml v1.3.0 + libmatroska v1.4.1
Video #1
ID : 1
Format : AVC
Format/Info : Advanced Video Codec
Format profile : High@L4.1
Format settings, CABAC : Yes
Format settings, ReFrames : 4 frames
Codec ID : V_MPEG4/ISO/AVC
Duration : 1h 41mn
Bit rate : 12.6 Mbps
Width : 1 920 pixels
Height : 1 080 pixels
Display aspect ratio : 16:9
Frame rate mode : Constant
Frame rate : 23.976 fps
Color space : YUV
Chroma subsampling : 4:2:0
Bit depth : 8 bits
Scan type : Progressive
Bits/(Pixel*Frame) : 0.253
Stream size : 8.57 GiB (51%)
Title : 67% of the original
Writing library : x264 core 140 r2377+40 929f149 tMod [8-bit@all X86_64]
Encoding settings : cabac=1 / ref=4 / deblock=1:-3:-3 / analyse=0x3:0x133 / me=umh / subme=11 / psy=1 / fade_compensate=0.00 / psy_rd=1.15:0.00 / mixed_ref=1 / me_range=32 / chroma_me=1 / trellis=2 / 8x8dct=1 / cqm=0 / deadzone=21,11 / fast_pskip=0 / chroma_qp_offset=-2 / threads=12 / lookahead_threads=2 / sliced_threads=0 / nr=0 / decimate=1 / interlaced=0 / bluray_compat=0 / constrained_intra=0 / fgo=0 / bframes=8 / b_pyramid=2 / b_adapt=2 / b_bias=0 / direct=3 / weightb=1 / open_gop=0 / weightp=2 / keyint=250 / keyint_min=23 / scenecut=40 / intra_refresh=0 / rc_lookahead=80 / rc=2pass / mbtree=1 / bitrate=12600 / ratetol=1.0 / qcomp=0.70 / qpmin=0:0:0 / qpmax=69:69:69 / qpstep=4 / cplxblur=20.0 / qblur=0.5 / ip_ratio=1.40 / aq=4:0.85 / aq-sensitivity=10.00 / aq-factor=1.00:1.00:1.00 / aq2=0 / aq3=0
Language : English
Default : Yes
Forced : No
Audio #2
ID : 2
Format : DTS
Format/Info : Digital Theater Systems
Mode : 16
Format settings, Endianness : Big
Codec ID : A_DTS
Duration : 1h 41mn
Bit rate mode : Constant
Bit rate : 1 509 Kbps
Channel count : 6 channels
Channel positions : Front: L C R, Side: L R, LFE
Sampling rate : 48.0 KHz
Bit depth : 16 bits
Compression mode : Lossy
Stream size : 1.07 GiB (6%)
Title : MVO DTS 5.1ch 1510kbps (Киномания)
Language : Russian
Default : Yes
Forced : No
Audio #3
ID : 3
Format : AC-3
Format/Info : Audio Coding 3
Mode extension : CM (complete main)
Format settings, Endianness : Big
Codec ID : A_AC3
Duration : 1h 41mn
Bit rate mode : Constant
Bit rate : 448 Kbps
Channel count : 6 channels
Channel positions : Front: L C R, Side: L R, LFE
Sampling rate : 48.0 KHz
Bit depth : 16 bits
Compression mode : Lossy
Stream size : 324 MiB (2%)
Title : MVO AC3 5.1ch 448kbps (R5 CP Digital)
Language : Russian
Default : No
Forced : No
Audio #4
ID : 4
Format : AC-3
Format/Info : Audio Coding 3
Mode extension : CM (complete main)
Format settings, Endianness : Big
Codec ID : A_AC3
Duration : 1h 41mn
Bit rate mode : Constant
Bit rate : 384 Kbps
Channel count : 6 channels
Channel positions : Front: L C R, Side: L R, LFE
Sampling rate : 48.0 KHz
Bit depth : 16 bits
Compression mode : Lossy
Stream size : 278 MiB (2%)
Title : MVO AC3 5.1ch 384kbps (М.Латышев)
Language : Russian
Default : No
Forced : No
Audio #5
ID : 5
Format : AC-3
Format/Info : Audio Coding 3
Mode extension : CM (complete main)
Format settings, Endianness : Big
Codec ID : A_AC3
Duration : 1h 41mn
Bit rate mode : Constant
Bit rate : 192 Kbps
Channel count : 2 channels
Channel positions : Front: L R
Sampling rate : 48.0 KHz
Bit depth : 16 bits
Compression mode : Lossy
Stream size : 139 MiB (1%)
Title : MVO AC3 2.0ch 192kbps (НТВ+)
Language : Russian
Default : No
Forced : No
Audio #6
ID : 6
Format : AC-3
Format/Info : Audio Coding 3
Mode extension : CM (complete main)
Format settings, Endianness : Big
Codec ID : A_AC3
Duration : 1h 41mn
Bit rate mode : Constant
Bit rate : 192 Kbps
Channel count : 2 channels
Channel positions : Front: L R
Sampling rate : 48.0 KHz
Bit depth : 16 bits
Compression mode : Lossy
Stream size : 139 MiB (1%)
Title : MVO AC3 2.0ch 192kbps (НТВ/ТНТ/Ren-TV)
Language : Russian
Default : No
Forced : No
Audio #7
ID : 7
Format : AC-3
Format/Info : Audio Coding 3
Mode extension : CM (complete main)
Format settings, Endianness : Big
Codec ID : A_AC3
Duration : 1h 41mn
Bit rate mode : Constant
Bit rate : 192 Kbps
Channel count : 2 channels
Channel positions : Front: L R
Sampling rate : 48.0 KHz
Bit depth : 16 bits
Compression mode : Lossy
Stream size : 139 MiB (1%)
Title : MVO AC3 2.0ch 192kbps (TV1000)
Language : Russian
Default : No
Forced : No
Audio #8
ID : 8
Format : AC-3
Format/Info : Audio Coding 3
Mode extension : CM (complete main)
Format settings, Endianness : Big
Codec ID : A_AC3
Duration : 1h 41mn
Bit rate mode : Constant
Bit rate : 192 Kbps
Channel count : 1 channel
Channel positions : Front: C
Sampling rate : 48.0 KHz
Bit depth : 16 bits
Compression mode : Lossy
Stream size : 139 MiB (1%)
Title : MVO AC3 1.0ch 192kbps (Премьер Видео Фильм)
Language : Russian
Default : No
Forced : No
Audio #9
ID : 9
Format : DTS
Format/Info : Digital Theater Systems
Mode : 16
Format settings, Endianness : Big
Codec ID : A_DTS
Duration : 1h 41mn
Bit rate mode : Constant
Bit rate : 755 Kbps
Channel count : 6 channels
Channel positions : Front: L C R, Side: L R, LFE
Sampling rate : 48.0 KHz
Bit depth : 24 bits
Compression mode : Lossy
Stream size : 546 MiB (3%)
Title : DVO DTS 5.1ch 755kbps (Superbit)
Language : Russian
Default : No
Forced : No
Audio #10
ID : 10
Format : DTS
Format/Info : Digital Theater Systems
Mode : 16
Format settings, Endianness : Big
Codec ID : A_DTS
Duration : 1h 41mn
Bit rate mode : Constant
Bit rate : 1 509 Kbps
Channel count : 6 channels
Channel positions : Front: L C R, Side: L R, LFE
Sampling rate : 48.0 KHz
Bit depth : 16 bits
Compression mode : Lossy
Stream size : 1.07 GiB (6%)
Title : AVO DTS 5.1ch 1510kbps (В.Горчаков)
Language : Russian
Default : No
Forced : No
Audio #11
ID : 11
Format : DTS
Format/Info : Digital Theater Systems
Mode : 16
Format settings, Endianness : Big
Codec ID : A_DTS
Duration : 1h 41mn
Bit rate mode : Constant
Bit rate : 1 509 Kbps
Channel count : 6 channels
Channel positions : Front: L C R, Side: L R, LFE
Sampling rate : 48.0 KHz
Bit depth : 16 bits
Compression mode : Lossy
Stream size : 1.07 GiB (6%)
Title : AVO DTS 5.1ch 1510kbps (П.Санаев)
Language : Russian
Default : No
Forced : No
Audio #12
ID : 12
Format : DTS
Format/Info : Digital Theater Systems
Format profile : ES
Mode : 16
Format settings, Endianness : Big
Codec ID : A_DTS
Duration : 1h 41mn
Bit rate mode : Constant
Bit rate : 755 Kbps
Channel count : 6 channels
Channel positions : Front: L C R, Side: L R, LFE
Sampling rate : 48.0 KHz
Bit depth : 24 bits
Compression mode : Lossy
Stream size : 546 MiB (3%)
Title : AVO DTS 5.1ch 755kbps (Ю.Живов)
Language : Russian
Default : No
Forced : No
Audio #13
ID : 13
Format : AC-3
Format/Info : Audio Coding 3
Mode extension : CM (complete main)
Format settings, Endianness : Big
Codec ID : A_AC3
Duration : 1h 41mn
Bit rate mode : Constant
Bit rate : 448 Kbps
Channel count : 6 channels
Channel positions : Front: L C R, Side: L R, LFE
Sampling rate : 48.0 KHz
Bit depth : 16 bits
Compression mode : Lossy
Stream size : 324 MiB (2%)
Title : AVO AC3 5.1ch 448kbps (Б.Федоров)
Language : Russian
Default : No
Forced : No
Audio #14
ID : 14
Format : AC-3
Format/Info : Audio Coding 3
Mode extension : CM (complete main)
Format settings, Endianness : Big
Codec ID : A_AC3
Duration : 1h 41mn
Bit rate mode : Constant
Bit rate : 384 Kbps
Channel count : 6 channels
Channel positions : Front: L C R, Side: L R, LFE
Sampling rate : 48.0 KHz
Bit depth : 16 bits
Compression mode : Lossy
Stream size : 278 MiB (2%)
Title : VO AC3 5.1ch 384kbps (CDV)
Language : Russian
Default : No
Forced : No
Audio #15
ID : 15
Format : AC-3
Format/Info : Audio Coding 3
Mode extension : CM (complete main)
Format settings, Endianness : Big
Codec ID : A_AC3
Duration : 1h 41mn
Bit rate mode : Constant
Bit rate : 256 Kbps
Channel count : 2 channels
Channel positions : Front: L R
Sampling rate : 48.0 KHz
Bit depth : 16 bits
Compression mode : Lossy
Stream size : 185 MiB (1%)
Title : VO AC3 2.0ch 256kbps (unknown woman)
Language : Russian
Default : No
Forced : No
Audio #16
ID : 16
Format : AC-3
Format/Info : Audio Coding 3
Mode extension : CM (complete main)
Format settings, Endianness : Big
Codec ID : A_AC3
Duration : 1h 41mn
Bit rate mode : Constant
Bit rate : 192 Kbps
Channel count : 1 channel
Channel positions : Front: C
Sampling rate : 48.0 KHz
Bit depth : 16 bits
Compression mode : Lossy
Stream size : 139 MiB (1%)
Title : VO AC3 1.0ch 192kbps (unknown man)
Language : Russian
Default : No
Forced : No
Audio #17
ID : 17
Format : AC-3
Format/Info : Audio Coding 3
Mode extension : CM (complete main)
Format settings, Endianness : Big
Codec ID : A_AC3
Duration : 1h 41mn
Bit rate mode : Constant
Bit rate : 96.0 Kbps
Channel count : 2 channels
Channel positions : Front: L R
Sampling rate : 48.0 KHz
Bit depth : 16 bits
Compression mode : Lossy
Stream size : 69.5 MiB (0%)
Title : AC3 2.0ch 96kbps (комментарии Чака Рассела)
Language : Russian
Default : No
Forced : No
Audio #18
ID : 18
Format : AC-3
Format/Info : Audio Coding 3
Mode extension : CM (complete main)
Format settings, Endianness : Big
Codec ID : A_AC3
Duration : 1h 41mn
Bit rate mode : Constant
Bit rate : 96.0 Kbps
Channel count : 2 channels
Channel positions : Front: L R
Sampling rate : 48.0 KHz
Bit depth : 16 bits
Compression mode : Lossy
Stream size : 69.5 MiB (0%)
Title : AC3 2.0ch 96kbps (комментарии режиссера и продюссеров)
Language : Russian
Default : No
Forced : No
Audio #19
ID : 19
Format : DTS
Format/Info : Digital Theater Systems
Mode : 16
Format settings, Endianness : Big
Codec ID : A_DTS
Duration : 1h 41mn
Bit rate mode : Constant
Bit rate : 1 509 Kbps
Channel count : 6 channels
Channel positions : Front: L C R, Side: L R, LFE
Sampling rate : 48.0 KHz
Bit depth : 16 bits
Compression mode : Lossy
Stream size : 1.07 GiB (6%)
Title : Original DTS 5.1ch 1510kbps
Language : English
Default : No
Forced : No
Audio #20
ID : 20
Format : AC-3
Format/Info : Audio Coding 3
Mode extension : CM (complete main)
Format settings, Endianness : Big
Codec ID : A_AC3
Duration : 1h 41mn
Bit rate mode : Constant
Bit rate : 192 Kbps
Channel count : 2 channels
Channel positions : Front: L R
Sampling rate : 48.0 KHz
Bit depth : 16 bits
Compression mode : Lossy
Stream size : 139 MiB (1%)
Title : Original AC3 2.0ch 192kbps (commentary by director Chuck Russell)
Language : English
Default : No
Forced : No
Audio #21
ID : 21
Format : AC-3
Format/Info : Audio Coding 3
Mode extension : CM (complete main)
Format settings, Endianness : Big
Codec ID : A_AC3
Duration : 1h 41mn
Bit rate mode : Constant
Bit rate : 192 Kbps
Channel count : 2 channels
Channel positions : Front: L R
Sampling rate : 48.0 KHz
Bit depth : 16 bits
Compression mode : Lossy
Stream size : 139 MiB (1%)
Title : Original AC3 2.0ch 192kbps (commentary by director and producers)
Language : English
Default : No
Forced : No
Text #22
ID : 22
Format : UTF-8
Codec ID : S_TEXT/UTF8
Codec ID/Info : UTF-8 Plain Text
Title : песни и надписи
Language : Russian
Default : Yes
Forced : No
Text #23
ID : 23
Format : UTF-8
Codec ID : S_TEXT/UTF8
Codec ID/Info : UTF-8 Plain Text
Title : full (R5)
Language : Russian
Default : No
Forced : No
Text #24
ID : 24
Format : UTF-8
Codec ID : S_TEXT/UTF8
Codec ID/Info : UTF-8 Plain Text
Title : full (Ray)
Language : Russian
Default : No
Forced : No
Text #25
ID : 25
Format : UTF-8
Codec ID : S_TEXT/UTF8
Codec ID/Info : UTF-8 Plain Text
Title : full (Subzero)
Language : Russian
Default : No
Forced : No
Text #26
ID : 26
Format : UTF-8
Codec ID : S_TEXT/UTF8
Codec ID/Info : UTF-8 Plain Text
Language : English
Default : No
Forced : No
Menu
00:00:00.000 : en:Main Titles/the Nicest Guy
00:03:38.301 : en:Tina Carlyle
00:07:05.216 : en:The Loaner
00:09:28.651 : en:Congo Bongo Club
00:12:17.987 : en:The Mask
00:14:55.728 : en:A Big Nothing
00:17:48.567 : en:Smokin!
00:22:56.292 : en:Next Morning
00:26:35.010 : en:Peggy Brandt
00:30:34.583 : en:Golf Practice
00:33:57.327 : en:Somebody Stop Me
00:37:28.538 : en:Baby Ain't I Good to You
00:39:43.214 : en:Rock This Joint
00:42:54.572 : en:Award Winning
00:46:03.010 : en:Kellaway
00:48:35.037 : en:50 Grand
00:52:56.423 : en:Loki
00:55:49.680 : en:Landfill Park
01:00:47.269 : en:Cuban Pete
01:04:04.674 : en:What a Rush!
01:09:00.678 : en:Love-Crazy Wild Man
01:16:01.140 : en:Milo to the Rescue
01:19:52.579 : en:Casino Nite
01:26:11.792 : en:Milo and the Mask
01:28:49.699 : en:Spicy Meatball
01:32:59.657 : en:Smokin!/End Credits

x264 log

x264 [info]: frame I:983 Avg QP:12.79 size:184915 PSNR Mean Y:52.46 U:56.12 V:56.57 Avg:53.15 Global:52.82
x264 [info]: frame P:42349 Avg QP:15.57 size: 93177 PSNR Mean Y:50.31 U:56.29 V:56.86 Avg:51.10 Global:50.64
x264 [info]: frame B:102261 Avg QP:17.21 size: 53094 PSNR Mean Y:49.29 U:54.50 V:55.22 Avg:50.16 Global:49.82
x264 [info]: consecutive B-frames: 3.5% 15.3% 6.6% 44.2% 12.8% 13.1% 3.9% 0.5% 0.2%
x264 [info]: mb I I16..4: 6.8% 85.1% 8.0%
x264 [info]: mb P I16..4: 2.1% 31.3% 1.0% P16..4: 24.6% 25.7% 6.4% 0.9% 0.0% skip: 8.0%
x264 [info]: mb B I16..4: 0.5% 8.0% 0.1% B16..8: 39.4% 21.0% 2.8% direct:11.1% skip:17.1% L0:40.2% L1:35.3% BI:24.5%
x264 [info]: 8x8 transform intra:91.5% inter:54.8%
x264 [info]: direct mvs spatial:98.3% temporal:1.7%
x264 [info]: coded y,uvDC,uvAC intra: 89.5% 83.0% 42.4% inter: 40.1% 33.2% 3.8%
x264 [info]: i16 v,h,dc,p: 15% 12% 4% 68%
x264 [info]: i8 v,h,dc,ddl,ddr,vr,hd,vl,hu: 14% 11% 27% 6% 6% 8% 7% 9% 11%
x264 [info]: i4 v,h,dc,ddl,ddr,vr,hd,vl,hu: 17% 12% 10% 8% 12% 13% 10% 9% 8%
x264 [info]: i8c dc,h,v,p: 24% 37% 24% 14%
x264 [info]: Weighted P-Frames: Y:2.2% UV:1.0%
x264 [info]: ref P L0: 57.1% 7.6% 22.9% 11.6% 0.8% 0.0%
x264 [info]: ref B L0: 88.0% 9.8% 2.2%
x264 [info]: ref B L1: 93.9% 6.1%
x264 [info]: SSIM Mean Y:0.9908397 (20.381db)
x264 [info]: PSNR Mean Y:49.608 U:55.031 V:55.707 Avg:50.454 Global:50.060 kb/s:12590.93
x264 [info]: encoded 145593 frames, 5.691 fps, 12590.93 kb/s, 9114.5 MB
x264 [info]: ended at Mon Nov 11 14:52:57 2013
x264 [info]: encoding duration 7:06:25
Скачать

Скачать торрент!

Как скачивать? · Что такое торрент? · Рейтинг и ограничения

Сайт не распространяет и не хранит электронные версии произведений, а лишь предоставляет доступ к создаваемому пользователями каталогу ссылок на торрент-файлы, которые содержат только списки хеш-сумм

[Профиль] [ЛС]
Показать сообщения:    
Ответить на тему

Текущее время: Сегодня 20:05

Часовой пояс: GMT + 4



Вы не можете начинать темы
Вы не можете отвечать на сообщения
Вы не можете редактировать свои сообщения
Вы не можете удалять свои сообщения
Вы не можете голосовать в опросах
Вы не можете прикреплять файлы к сообщениям
Вы не можете скачивать файлы