С девяти до пяти / Nine to Five (Колин Хиггинс / Colin Higgins) [1980, США, Комедия, WEB-DL 720p] AVO (Михалёв) + 2х MVO + Sub Eng + Original Eng

Ответить на тему
 
Автор Сообщение

user ®

Стаж: 7 лет 7 месяцев

Сообщений: 20008

Пост Пост: #1 от 13-Ноя-2013 23:20

[Цитировать]

С девяти до пяти / Nine to Five
Страна: США
Студия: 20th Century Fox Film Corporation
Жанр: Комедия
Год выпуска: 1980
Продолжительность: 01:49:23
Перевод 1: Авторский (одноголосый закадровый) АЛЕКСЕЙ МИХАЛЁВ
Перевод 2: Профессиональный (многоголосый закадровый) [НТВ+]
Перевод 3: Профессиональный (многоголосый закадровый) [ОРТ]
Cубтитры: английские
Оригинальная аудиодорожка: английский
Режиссер: Колин Хиггинс / Colin Higgins
В ролях: Джейн Фонда /Jane Fonda/, Лили Томлин /Lily Tomlin/, Долли Партон /Dolly Parton/, Стерлинг Хэйден /Sterling Hayden/, Дэбни Коулман /Dabney Coleman/, Элизабет Уилсон /Elizabeth Wilson/
Описание: Три секретарши (Фонда, Томлин и Партон) объединяются, чтобы отомстить своему глупому и самодовольному боссу, который к ним вечно пристает с грязными намерениями. (Иванов М.)
"Альтернативное описание: В кинопрокате ФРГ эта американская лента имела знаменательное название «Почему мы вечно не переносим начальника?». Задавшись примерно таким вопросом, три разозлённые секретарши — Джуди, Дорали и Вайолет — решили устранить (хотя бы на время) своего нудного шефа, инсценировав его смерть, а на самом-то деле, просто заключив начальника под домашний арест. Пользуясь этим случаем в своих интересах, они навели на работе совершенно иной порядок, наиболее удобный каждому из служащих.
Временами очень смешная, по идее — вообще сатирическая картина, она входила (вплоть до последнего момента) в число ста пятидесяти самых кассовых в США за всю историю. А если учитывать только комедии, причём семейно-бытового или же социального плана, затрагивающие ежедневные проблемы человеческой жизни, то до появления «Тутси» (1982) даже лидировала в этом жанре. Всё говорит о том, что фильм «С 9 до 5» пользовался неимоверным успехом, причина которого, наверно, заключается в уже названном вопросе насчёт начальника, поскольку мы проводим немалую часть своей жизни на работе. Эта лента к тому же отличается в выгодную сторону от других популярных комедий Колина Хиггинса — более пошлого «Самого приятного борделя в Техасе» и не очень удачной пародии на «чёрные фильмы» под названием «Грязная игра».(Сергей Кудрявцев)"
--------------------------------------------------------------------
Оператор: Рейналдо Виллалобос /Reynaldo Villalobos/
Сценарист: Колин Хиггинс /Colin Higgins/, Пэтришиа Резник /Patricia Resnick/
Продюсер: Брюс Гилберт /Bruce Gilbert/
Монтажер: Пемброук Джей Херринг /Pembroke J. Herring/
Композитор: Чарлз Фокс /Charles Fox/
Художник: Дин Мицнер /Dean Mitzner/
--------------------------------------------------
КИНОПОИСК. RU
РЕЙТИНГ 7.098 оценки: 349
6,4/10 from 15 124 users
--------------------------------------------------
--------------------------------------------------
СЭМПЛ
--------------------------------------------------
Примечание: Скорость маленькая 50 kb/c, но раздаю круглосуточно.
--------------------------------------------------
Тип релиза: WEB-DL 720p
Контейнер: MKV
Видео: 1280x692; 23.976 fps; ~ 4 013 Kbps; 0.189 Bits/Pixel
Аудио 1: Russian - 48 kHz, AC3 Dolby Digital, 2/0 (L,R) 2ch, ~192 kbps - Алексей Михалёв
Аудио 2: Russian - 48 kHz, AC3 Dolby Digital, 2/0 (L,R) 2ch, ~192 kbps - MVO[НТВ+]
Аудио 3: Russian - 48 kHz, AC3 Dolby Digital, 2/0 (L,R) 2ch, ~192 kbps - MVO[ОРТ]
Аудио 4: English - 48 kHz, AC3 Dolby Digital, 2/0 (L,R) 2ch, ~192 kbps - Original
Формат субтитров: English (*UTF-8)

MediaInfo

General
Complete name : F:\EXCLUZIVE=19\С девяти до пяти = Nine to Five.1980\Nine.To.Five.1980+\Nine to Five.1980.720p.WEB-DL.mkv
Format : Matroska
File size : 3.73 GiB
Duration : 1h 49mn
Overall bit rate : 4 878 Kbps
Encoded date : UTC 2013-11-13 16:18:15
Writing application : mkvmerge v3.3.0 ('Language') built on Mar 24 2010 14:59:24
Writing library : libebml v0.8.0 + libmatroska v0.9.0
Video
ID : 1
Format : AVC
Format/Info : Advanced Video Codec
Format profile : High@L3.1
Format settings, CABAC : No
Format settings, ReFrames : 2 frames
Muxing mode : Container profile=Unknown@3.1
Codec ID : V_MPEG4/ISO/AVC
Duration : 1h 49mn
Bit rate : 4 013 Kbps
Width : 1 280 pixels
Height : 692 pixels
Display aspect ratio : 1.850
Frame rate : 23.976 fps
Color space : YUV
Chroma subsampling : 4:2:0
Bit depth : 8 bits
Scan type : Progressive
Bits/(Pixel*Frame) : 0.189
Stream size : 3.07 GiB (82%)
Title : Nine to Five.1980.
Language : English
Color primaries : BT.709-5, BT.1361, IEC 61966-2-4, SMPTE RP177
Transfer characteristics : BT.709-5, BT.1361
Matrix coefficients : BT.709-5, BT.1361, IEC 61966-2-4 709, SMPTE RP177
Audio #1
ID : 2
Format : AC-3
Format/Info : Audio Coding 3
Mode extension : CM (complete main)
Codec ID : A_AC3
Duration : 1h 49mn
Bit rate mode : Constant
Bit rate : 192 Kbps
Channel(s) : 2 channels
Channel positions : Front: L R
Sampling rate : 48.0 KHz
Stream size : 150 MiB (4%)
Title : AVO Михалёв @ AC3 2ch 192 kbps
Language : Russian
Audio #2
ID : 3
Format : AC-3
Format/Info : Audio Coding 3
Mode extension : CM (complete main)
Codec ID : A_AC3
Duration : 1h 49mn
Bit rate mode : Constant
Bit rate : 192 Kbps
Channel(s) : 2 channels
Channel positions : Front: L R
Sampling rate : 48.0 KHz
Stream size : 150 MiB (4%)
Title : MVO (НТВ+) @ AC3 2ch 192 kbps
Language : Russian
Audio #3
ID : 4
Format : AC-3
Format/Info : Audio Coding 3
Mode extension : CM (complete main)
Codec ID : A_AC3
Duration : 1h 49mn
Bit rate mode : Constant
Bit rate : 192 Kbps
Channel(s) : 2 channels
Channel positions : Front: L R
Sampling rate : 48.0 KHz
Stream size : 150 MiB (4%)
Title : MVO (OPT) @ AC3 2ch 192 kbps
Language : Russian
Audio #4
ID : 5
Format : AC-3
Format/Info : Audio Coding 3
Mode extension : CM (complete main)
Codec ID : A_AC3
Duration : 1h 49mn
Bit rate mode : Constant
Bit rate : 192 Kbps
Channel(s) : 2 channels
Channel positions : Front: L R
Sampling rate : 48.0 KHz
Stream size : 150 MiB (4%)
Title : Original @ AC3 2ch 192 kbps
Language : English
Text
ID : 6
Format : UTF-8
Codec ID : S_TEXT/UTF8
Codec ID/Info : UTF-8 Plain Text
Title : (* UTF-8)
Language : English
Menu
00:00:00.000 : en:Chapter 01
00:02:32.000 : en:Chapter 02
00:06:47.000 : en:Chapter 03
00:09:37.000 : en:Chapter 04
00:11:58.000 : en:Chapter 05
00:16:55.000 : en:Chapter 06
00:19:49.000 : en:Chapter 07
00:21:16.000 : en:Chapter 08
00:24:13.000 : en:Chapter 09
00:26:46.000 : en:Chapter 10
00:27:58.000 : en:Chapter 11
00:30:03.000 : en:Chapter 12
00:33:07.000 : en:Chapter 13
00:35:06.000 : en:Chapter 14
00:38:43.000 : en:Chapter 15
00:42:16.000 : en:Chapter 16
00:47:04.000 : en:Chapter 17
00:53:29.000 : en:Chapter 18
00:56:07.000 : en:Chapter 19
01:01:07.000 : en:Chapter 20
01:04:45.000 : en:Chapter 21
01:08:17.000 : en:Chapter 22
01:09:59.000 : en:Chapter 23
01:15:11.000 : en:Chapter 24
01:17:05.000 : en:Chapter 25
01:20:27.000 : en:Chapter 26
01:25:16.000 : en:Chapter 27
01:28:33.000 : en:Chapter 28
01:34:47.000 : en:Chapter 29
01:38:04.000 : en:Chapter 30
01:43:56.000 : en:Chapter 31
01:46:03.000 : en:Chapter 32

Скриншоты

, ,
, ,
, ,
Скачать

Скачать торрент!

Как скачивать? · Что такое торрент? · Рейтинг и ограничения

Сайт не распространяет и не хранит электронные версии произведений, а лишь предоставляет доступ к создаваемому пользователями каталогу ссылок на торрент-файлы, которые содержат только списки хеш-сумм

[Профиль] [ЛС]
Показать сообщения:    
Ответить на тему

Текущее время: Сегодня 02:23

Часовой пояс: GMT + 4



Вы не можете начинать темы
Вы не можете отвечать на сообщения
Вы не можете редактировать свои сообщения
Вы не можете удалять свои сообщения
Вы не можете голосовать в опросах
Вы не можете прикреплять файлы к сообщениям
Вы не можете скачивать файлы