Цветок и камень / Phool aur Patthar (О.П. Ралхан / O.P. Ralhan) [1966, Индия, Мелодрама, DVDRip] Dub + Sub Rus

Ответить на тему
 
Автор Сообщение

user ®

Стаж: 12 лет

Сообщений: 15092

Пост Пост: #1 от 13-Ноя-2013 17:00

[Цитировать]

Цветок и камень / Phool aur Patthar
Полная версия
Страна: Индия
Жанр: Мелодрама
Год выпуска: 1966
Продолжительность: 02:42:31
Перевод: Профессиональный (дублированный)
Перевод субтитров: larisa_k
Cубтитры: Русские (На песни и вырезанные фрагменты)
Оригинальная аудиодорожка: Хинди
Режиссер: О.П. Ралхан / O.P. Ralhan
В ролях: Дхармендра, Мина Кумари, Шашикала, О.П.Ралхан, Лалита Павар, Сундер, Дживан, Рам Мохан, Мадан Пури, Тун Тун, Ифтекхар, Манмохан Кришна, Лила Читнис, Мадхумати, Лакшми Чхая, Рэни, Д.К.Сапру, Брахм Бхардвадж, Шьям Кумар, Сатиш, Баби Фарида, Нилам, Мастер Азиз, Рам Автар, Радж Нета, Пол Шарма, Мастер Анил, Нарбада Шанкар, Равикант, Х.Пракаш, Магбул, Бхайрон, Шьям Ралхан, Нишан, Аруна, Асси Датт, Джерри, Ажит Сони, Джони Бхаски, К.Нарула, Прем Пракаш, Дайя Деви, Рада, Сарда Чопра, Рами Самдева, К.Дуггал, Радж Датт, Мадхумати, Сарой Кхан, Индира Билли
Описание: Богатая и влиятельная семья Деви уезжает из города, где свирепствует страшная болезнь, убивающая людей. Родственники оставляют молодую и красивую Шанти умирать одну, пока несчастная женщина не заразила всех. В пустынный дом проникает Шаака - профессиональный вор, собирающийся поживиться брошенными в спешке богатствами. Он видит умирающую Шанти. Молодой человек решает помочь женщине и остается, чтобы ухаживать за больной. Через какое-то время красавица выздоравливает и влюбляется в своего спасителя. Ее жизнь налаживается. Только одно омрачает радость выздоровления: Шанти не может простить свою семью, бросившую ее умирать...-Полная версия фильма. В советском прокатном варианте вырезано 7 минут материала. Данная версия больше советского прокатного варианта на 7 минут. В неозвученных местах и в песнях присутствуют русские субтитры.
Доп. информация: Индийский блокбастер 1966-го года. Фильм был самым кассовым 1966 году в Индии.
Фильм с большим успехом шел в кинозалах СССР с середины 1970 года и был одним из самых кассовых.
Фильм занимает 24-е место по посещаемости среди зарубежных лент в советском кинопрокате.
Исполнитель роли "Саракрам", О.П. Ралхан, является режиссером и сценаристом фильма. Кинокомпания Ralhan Productions, принадлежит ему.
Этот фильм принес Дхармендре первую номинацию Filmfare Awards в категории лучший актер и хотя его обошел Дев Ананд, фильм этот принес Дхармендре популярность. Этот фильм также создал прекрасную актерскую пару - Мина Кумари и Дхармендра - успешно сыгравшую в таких фильмах как Chandan Ka Palna, Manjhli Didi and Baharon Ki Manzil. Изначально на главную роль планировали взять Сунила Датта. У Дхармендры во время съемок были разногласия с режиссером О.П. Ралханом. Но не смотря не на что фильм был снят таким каким мы его теперь видим и стал истинной классикой индийского кино.
Благодарность:
veronika83 за DVD9 (без перевода)
larisa_k за любезно предоставленные субтитры
сержик1981 за техническую помощь в подготовке сабов на вырезанные фрагменты к переводу.
Русская дублированная звуковая дорожка взята с DVD5. (Песни с оригинальной дорожки)
Рип, сведение и синхронизация звука: pca1962
Сэмпл: http://multi-up.com/922976

Исходник: DVD9
Качество видео: DVDRip
Формат видео: AVI
Видео: XviD, 640x480, 25.00 fps, 1835 kbps
Аудио: AC3, 48 kHz, 2.0 (stereo), 192 kbps (русский)
Аудио 2: AC3, 48 kHz, 5.1 (6 ch), 384 kbps (хинди)
Формат субтитров: softsub (SRT)

Награды и номинации:

Filmfare Awards
Награды :
Лучший арт-директор - Шанти Дасс
Лучший редактор - Васант Бoрkaр
Номинации:
Лучшая мужская роль - Дхармендра
Лучшая актриса - Мина Кумари
Лучшая актриса второго плана - Шашикала

MediaInfo

=== Общие ===
Полное имя : Cvetok.i.kamen.1966.XviD.DVDRip.pca1962.avi
Формат : AVI
Описание формата : Audio Video Interleave
Профиль формата : OpenDML
Размер файла : 2.76 Гб
Длительность : 2ч 42мин
Общий битрейт : 2 428 кбит/сек
Програмное обеспечение : VirtualDubModRus 1.5.10.2 (build 2542/release)
Кодирующая библиотека : VirtualDubMod build 2542/release
=== Видео ===
ID (Идентификатор) : 0
Формат : MPEG-4 Visual
Профиль формата : Advanced Simple@L5
Параметр 'BVOP' : 2
Параметр 'QPel' : Нет
Параметр 'GMC' : No warppoints
Параметр 'Matrix' : Default (MPEG)
Идентификатор кодека : XVID
Подпись кодека : XviD
Длительность : 2ч 42мин
Битрейт : 1 835 кбит/сек
Ширина кадра : 640 пикселей
Высота кадра : 480 пикселей
Соотношение сторон : 4:3
Частота кадров : 25.000 кадров/сек
Цветовое пространство : YUV
Субдискретизация насыщенности : 4:2:0
Глубина (разрядность) : 8 bits
Тип развертки : Прогрессивная
Режим сжатия : С потерями
Бит/(пиксель*кадр) : 0.239
Размер потока : 2.08 Гб (76%)
Кодирующая библиотека : XviD 1.2.1 (UTC 2008-12-04)
=== Аудио 1 ===
ID (Идентификатор) : 1
Формат : AC-3
Описание формата : Audio Coding 3
Mode extension : CM (complete main)
Идентификатор кодека : 2000
Длительность : 2ч 42мин
Тип битрейта : Постоянный
Битрейт : 192 кбит/сек
Канал(ы) : 2 каналов
Расположение каналов : Front: L R
Частота дискретизации : 48.0 кГц
Глубина (разрядность) : 16 bits
Режим сжатия : С потерями
Размер потока : 223 Мб (8%)
Расположение потока : Split accross interleaves
Период чередования : 40 мс (1.00 video frame)
Предварительная загрузка : 500 мс
=== Аудио 2 ===
ID (Идентификатор) : 2
Формат : AC-3
Описание формата : Audio Coding 3
Mode extension : CM (complete main)
Идентификатор кодека : 2000
Длительность : 2ч 42мин
Тип битрейта : Постоянный
Битрейт : 384 кбит/сек
Канал(ы) : 6 каналов
Расположение каналов : Front: L C R, Side: L R, LFE
Частота дискретизации : 48.0 кГц
Глубина (разрядность) : 16 bits
Режим сжатия : С потерями
Размер потока : 446 Мб (16%)
Расположение потока : Split accross interleaves
Период чередования : 40 мс (1.00 video frame)
Предварительная загрузка : 500 мс

Скриншот c названием фильма

Скачать

Скачать торрент! Цветок и камень / Phool aur Patthar (О.П. Ралхан / O.P. Ralhan) [1966, Индия, Мелодрама, DVDRip] Dub + Sub Rus

Как скачивать? · Что такое торрент? · Рейтинг и ограничения

Сайт не распространяет и не хранит электронные версии произведений, а лишь предоставляет доступ к создаваемому пользователями каталогу ссылок на торрент-файлы, которые содержат только списки хеш-сумм

[Профиль] [ЛС]
Показать сообщения:    
Ответить на тему

Текущее время: Сегодня 06:27

Часовой пояс: GMT + 4



Вы не можете начинать темы
Вы не можете отвечать на сообщения
Вы не можете редактировать свои сообщения
Вы не можете удалять свои сообщения
Вы не можете голосовать в опросах
Вы не можете прикреплять файлы к сообщениям
Вы не можете скачивать файлы