Попробуй вспомнить / Try to Remember / Wuri mannan Jeok Issnayo (Лим Чин Пхён / Lim Jin-Pyung) [2010, Южная Корея, Драма, DVDRip] VO (den904)

Ответить на тему
 
Автор Сообщение

user ®

Стаж: 11 лет

Сообщений: 15151

Пост Пост: #1 от 12-Ноя-2013 20:20

[Цитировать]

Попробуй вспомнить / Try to Remember / Wuri mannan Jeok Issnayo
Страна: Южная Корея
Жанр: Драма
Год выпуска: 2010
Продолжительность: 01:40:32
Перевод: Одноголосый закадровый den904
Cубтитры: нет
Режиссер: Лим Чин Пхён / Lim Jin-Pyung
В ролях: Пак Чжэчон, Юн Со, Чон Мансик, Ма Донсок
Описание: Мужчина и женщина, которые практически не знакомы, видят одинаковые сны и постоянно ощущают дежавю. Они встречаются в городке Андон, где в университетском музее находится письмо 450-летней давности, которое каждый из них уже видел раньше. Это история о любви, существующей вне времени и пространства.
Доп. информация: Исходник DVD-5 R1 (СПАСИБО! wertrist)
Дорожка с переводом от релиз-группы: Колобок
Перевод на русский: Golden Oppa, Silly Naive (Спасибо!)
Озвучка: den904 (Спасибо!)
Качество видео: DVDRip
Формат видео: AVI
Видео: XviD build 50, 688x352 (1.95:1), 23.976 fps, 899 kbps avg
Аудио: MPEG Layer 3, 48 kHz, 2/0 (L,R) ch, 128.00 kbps avg

MediaInfo

General
Complete name : D:\Poprobyj.vspomnit.2010.DVDRip-Dego.avi
Format : AVI
Format/Info : Audio Video Interleave
File size : 746 MiB
Duration : 1h 40mn
Overall bit rate : 1 037 Kbps
Writing application : VirtualDubMod 1.5.10.2 (build 2540/release)
Writing library : VirtualDubMod build 2540/release
Video
ID : 0
Format : MPEG-4 Visual
Format profile : AdvancedSimple@L5
Format settings, BVOP : Yes
Format settings, QPel : No
Format settings, GMC : No warppoints
Format settings, Matrix : Default (MPEG)
Codec ID : XVID
Codec ID/Hint : XviD
Duration : 1h 40mn
Bit rate : 900 Kbps
Width : 688 pixels
Height : 352 pixels
Display aspect ratio : 1.955
Frame rate : 23.976 fps
Resolution : 24 bits
Colorimetry : 4:2:0
Scan type : Progressive
Bits/(Pixel*Frame) : 0.155
Stream size : 647 MiB (87%)
Writing library : XviD 1.2.1 (UTC 2008-12-04)
Audio
ID : 1
Format : MPEG Audio
Format version : Version 1
Format profile : Layer 3
Codec ID : 55
Codec ID/Hint : MP3
Duration : 1h 40mn
Bit rate mode : Constant
Bit rate : 128 Kbps
Channel(s) : 2 channels
Sampling rate : 48.0 KHz
Resolution : 16 bits
Stream size : 92.0 MiB (12%)
Alignment : Aligned on interleaves
Interleave, duration : 42 ms (1.00 video frame)
Interleave, preload duration : 504 ms
Writing library : LAME3.98
Encoding settings : -m j -V 4 -q 3 -lowpass 17 -b 128

Скриншот c названием фильма

Скриншоты

Скачать

Скачать торрент! Попробуй вспомнить / Try to Remember / Wuri mannan Jeok Issnayo (Лим Чин Пхён / Lim Jin-Pyung) [2010, Южная Корея, Драма, DVDRip] VO (den904)

Как скачивать? · Что такое торрент? · Рейтинг и ограничения

Сайт не распространяет и не хранит электронные версии произведений, а лишь предоставляет доступ к создаваемому пользователями каталогу ссылок на торрент-файлы, которые содержат только списки хеш-сумм

[Профиль] [ЛС]
Показать сообщения:    
Ответить на тему

Текущее время: Сегодня 06:17

Часовой пояс: GMT + 4



Вы не можете начинать темы
Вы не можете отвечать на сообщения
Вы не можете редактировать свои сообщения
Вы не можете удалять свои сообщения
Вы не можете голосовать в опросах
Вы не можете прикреплять файлы к сообщениям
Вы не можете скачивать файлы