Повелитель лавин / Prince Avalanche (Дэвид Гордон Грин / David Gordon Green) [2013, США, драма, комедия, BDRip 720p] DVO (Ozz tv) + Original (Eng) + Subs (2x Rus, Eng)

Ответить на тему
 
Автор Сообщение

user ®

Стаж: 7 лет 7 месяцев

Сообщений: 20008

Пост Пост: #1 от 12-Ноя-2013 20:20

[Цитировать]

Повелитель лавин / Prince Avalanche Страна: США
Студия: Muskat Filmed Properties, Rough House Pictures, ...
Жанр: драма, комедия
Год выпуска: 2013
Продолжительность: 01:33:21
Перевод: Профессиональный (двухголосый закадровый) Ozz tv (Ирина Воронова и Алексей Серегин)
Cубтитры: английские, английские (SDH), русские (El Brujo), русские (ak79)
Оригинальная аудиодорожка: английский
Режиссер: Дэвид Гордон Грин / David Gordon Green
В ролях: Пол Радд, Эмиль Хирш, Лэнс ЛеГолт, Джойс Пэйн, Джина Гранде, Линн Шелтон, Ларри Кречмар, Энок Мун, Дэвид Л. Осборн мл., Дэнни Уолкотт
Описание:
Элвин и Лэнс проводят лето 1988 года в пустынном, выжженном пожарами лесу, занимаясь монотонной работой, перекрашивая знаки на бесконечной проселочной дороге. Лэнсу нелегко в этой глуши прожить без вечеринок и девочек, в отличие от более серьезного Элвина, который пишет страстные письма своей девушке, старшей сестре Лэнса. На протяжении этого долгого лета они встречают только одного человека - таинственного водителя грузовика, который щедро угощает их домашней выпивкой, а затем исчезает так же внезапно, как и появился.
- ||-Тип релиза: BDRip 720p (рип от HDWinG)

Контейнер: MKV
Видео: AVC (x264), 1280x534 (2,40:1) at 23,976 fps, 5257 Кbps, 0.321 bpp
Аудио 1: AC3; 640 Kbps; CBR; 6 ch; 48 khz | DVO - Ozz tv |
Аудио 2: AC3; 640 Kbps; CBR; 6 ch; 48 khz | Английский |
Формат субтитров: softsub (SRT)

Скриншоты || x264 Info || MediaInfo || Notes

Аудио дорожка №1 взята с Prince Avalanche (2013) 1080p BD-Remux, thx: by Vlad1k_H_

MediaInfo

Общее
Уникальный идентификатор                 : 241834883773151248439826978210520466283 (0xB5EFB4553CA58098A02DB5C2018B836B)
Полное имя                               : Повелитель лавин.2013.P.720p.BluRay.x264-HDWinG.mkv
Формат                                   : Matroska
Версия формата                           : Version 4 / Version 2
Размер файла                             : 4,26 Гбайт
Продолжительность                        : 1 ч. 33 м.
Общий поток                              : 6539 Кбит/сек
Название фильма                          : Prince Avalanche [720p] [2013] DVO
Дата кодирования                         : UTC 2013-11-12 06:54:54
Программа кодирования                    : mkvmerge v6.5.0 ('Isn't she lovely') built on Oct 20 2013 12:50:05
Библиотека кодирования                   : libebml v1.3.0 + libmatroska v1.4.1
Видео
Идентификатор                            : 1
Формат                                   : AVC
Формат/Информация                        : Advanced Video Codec
Профиль формата                          : High@L4.1
Параметр CABAC формата                   : Да
Параметр ReFrames формата                : 12 кадров
Идентификатор кодека                     : V_MPEG4/ISO/AVC
Продолжительность                        : 1 ч. 33 м.
Битрейт                                  : 5257 Кбит/сек
Ширина                                   : 1280 пикселей
Высота                                   : 534 пикселя
Соотношение сторон                       : 2,40:1
Режим частоты кадров                     : Постоянный
Частота кадров                           : 23,976 кадра/сек
Цветовое пространство                    : YUV
Субдискретизация насыщенности            : 4:2:0
Битовая глубина                          : 8 бит
Тип развёртки                            : Прогрессивная
Бит/(Пиксели*Кадры)                      : 0.321
Размер потока                            : 3,35 Гбайт (78%)
Заголовок                                : profile.php?mode=viewprofile&u=22488948
Библиотека кодирования                   : x264 core 136 r2348+704+51 d1baef6 tMod [8-bit@4:2:0 X86_64]
Настройки программы                      : cabac=1 / ref=12 / deblock=1:-3:-3 / analyse=0x3:0x133 / me=umh / subme=11 / psy=1 / fade_compensate=0.00 / psy_rd=1.00:0.00 / mixed_ref=1 / me_range=32 / chroma_me=1 / trellis=2 / 8x8dct=1 / cqm=0 / deadzone=21,11 / fast_pskip=0 / chroma_qp_offset=-2 / threads=12 / lookahead_threads=2 / sliced_threads=0 / nr=0 / decimate=0 / interlaced=0 / bluray_compat=0 / constrained_intra=0 / fgo=0 / bframes=8 / b_pyramid=2 / b_adapt=2 / b_bias=0 / direct=3 / weightb=1 / open_gop=0 / weightp=2 / keyint=240 / keyint_min=24 / scenecut=40 / intra_refresh=0 / rc_lookahead=240 / rc=2pass / mbtree=1 / bitrate=5257 / ratetol=1.0 / qcomp=0.70 / qpmin=0:0:0 / qpmax=69:69:69 / qpstep=4 / cplxblur=20.0 / qblur=0.5 / ip_ratio=1.10 / aq=4:0.90 / aq-sensitivity=10.00 / aq-factor=1.00:1.00:1.00 / aq2=0 / aq3=0
Язык                                     : English
Default                                  : Да
Forced                                   : Нет
Аудио #1
Идентификатор                            : 2
Формат                                   : AC-3
Формат/Информация                        : Audio Coding 3
Расширение режима                        : CM (complete main)
Параметр Endianness формата              : Big
Идентификатор кодека                     : A_AC3
Продолжительность                        : 1 ч. 33 м.
Вид битрейта                             : Постоянный
Битрейт                                  : 640 Кбит/сек
Каналы                                   : 6 каналов
Расположение каналов                     : Front: L C R, Side: L R, LFE
Частота                                  : 48,0 КГц
Битовая глубина                          : 16 бит
Метод сжатия                             : С потерями
Размер потока                            : 427 Мбайт (10%)
Заголовок                                : P, DVO [Ozz tv]
Язык                                     : Russian
Default                                  : Да
Forced                                   : Нет
Аудио #2
Идентификатор                            : 3
Формат                                   : AC-3
Формат/Информация                        : Audio Coding 3
Расширение режима                        : CM (complete main)
Параметр Endianness формата              : Big
Идентификатор кодека                     : A_AC3
Продолжительность                        : 1 ч. 33 м.
Вид битрейта                             : Постоянный
Битрейт                                  : 640 Кбит/сек
Каналы                                   : 6 каналов
Расположение каналов                     : Front: L C R, Side: L R, LFE
Частота                                  : 48,0 КГц
Битовая глубина                          : 16 бит
Метод сжатия                             : С потерями
Размер потока                            : 427 Мбайт (10%)
Язык                                     : English
Default                                  : Нет
Forced                                   : Нет
Текст #1
Идентификатор                            : 4
Формат                                   : UTF-8
Идентификатор кодека                     : S_TEXT/UTF8
Идентификатор кодека/Информация          : UTF-8 Plain Text
Заголовок                                : SDH
Язык                                     : English
Default                                  : Нет
Forced                                   : Нет
Текст #2
Идентификатор                            : 5
Формат                                   : UTF-8
Идентификатор кодека                     : S_TEXT/UTF8
Идентификатор кодека/Информация          : UTF-8 Plain Text
Язык                                     : English
Default                                  : Нет
Forced                                   : Нет
Текст #3
Идентификатор                            : 6
Формат                                   : UTF-8
Идентификатор кодека                     : S_TEXT/UTF8
Идентификатор кодека/Информация          : UTF-8 Plain Text
Заголовок                                : [El Brujo]
Язык                                     : Russian
Default                                  : Нет
Forced                                   : Нет
Текст #4
Идентификатор                            : 7
Формат                                   : UTF-8
Идентификатор кодека                     : S_TEXT/UTF8
Идентификатор кодека/Информация          : UTF-8 Plain Text
Заголовок                                : [ak79]
Язык                                     : Russian
Default                                  : Нет
Forced                                   : Нет
Меню
00:00:00.000                             : en:00:00:00.000
00:08:12.075                             : en:00:08:12.075
00:16:06.382                             : en:00:16:06.382
00:24:08.530                             : en:00:24:08.530
00:35:18.825                             : en:00:35:18.825
00:46:41.215                             : en:00:46:41.215
00:52:08.459                             : en:00:52:08.459
01:00:42.055                             : en:01:00:42.055
01:06:06.880                             : en:01:06:06.880
01:12:36.894                             : en:01:12:36.894
01:24:58.010                             : en:01:24:58.010
01:30:48.610                             : en:01:30:48.610

x264 Info

x264 [info]: frame I:858 Avg QP:14.43 size:151559
x264 [info]: frame P:34494 Avg QP:16.24 size: 61386
x264 [info]: frame B:98958 Avg QP:18.78 size: 14486
x264 [info]: consecutive B-frames: 6.1% 5.1% 9.8% 16.4% 14.8% 31.4% 7.1% 3.0% 6.2%
Скачать

Скачать торрент!

Как скачивать? · Что такое торрент? · Рейтинг и ограничения

Сайт не распространяет и не хранит электронные версии произведений, а лишь предоставляет доступ к создаваемому пользователями каталогу ссылок на торрент-файлы, которые содержат только списки хеш-сумм

[Профиль] [ЛС]
Показать сообщения:    
Ответить на тему

Текущее время: Сегодня 16:06

Часовой пояс: GMT + 4



Вы не можете начинать темы
Вы не можете отвечать на сообщения
Вы не можете редактировать свои сообщения
Вы не можете удалять свои сообщения
Вы не можете голосовать в опросах
Вы не можете прикреплять файлы к сообщениям
Вы не можете скачивать файлы