Чтобы выжить (Всеволод Плоткин) [1992, Боевик, SATRip]

Ответить на тему
 
Автор Сообщение

user ®

Стаж: 7 лет 7 месяцев

Сообщений: 20008

Пост Пост: #1 от 10-Ноя-2013 17:30

[Цитировать]

Чтобы выжить- Жанр: Боевик
Год выпуска: 1992
Продолжительность: 01:41:54-Режиссер: Всеволод Плоткин
В ролях: Владимир Меньшов, Александр Розенбаум, Мурад Алиев, Арсен Амаспюрянц, Анвар Азимов, Михаил Богдасаров, Яков Голяков, Юрий Горобец, Анвар Кенжаев, Владимир Марков, Сергей Векслер и др.-Описание: Эмиссар бывшей «партийной мафии» по кличке «Джафар» готовит и осуществляет ряд провокаций и террористических актов на окраинах страны для создания предпосылок государственного переворота. В ходе налета на один из армейских оружейных складов ранен проводник.
Бандитам срочно нужно переправить через афганскую границу караван с наркотиками. В качестве проводника Джафар пытается использовать бывшего офицера — «афганца» Олега, для чего бандиты берут в заложники его сына. Олег и его армейский друг Николай, используя весь свой опыт войны в горах, вступают в неравную смертельную борьбу с бандой…- -Автор: AngelOfTrue--Качество видео: SATRip
Формат видео: AVI
Видео: XviD / 704x528 / 1.33:1 / 1845 kbps / 25 fps / 0.20 bit/pixel
Аудио: AC3 Dolby Digital / 48 KHz / 192 kbps / 2/0 (L,R) ch

MediaInfo

Формат : AVI
Формат/Информация : Audio Video Interleave
Размер файла : 1,46 Гбайт
Продолжительность : 1 ч. 41 м.
Общий поток : 2047 Кбит/сек
Название фильма : Chtoby.Vyzhit.1992.RUS.SATRip.XviD.AC3.-AngelOfTrue
Режиссёр : AngelOfTrue
Программа кодирования : VirtualDubMod 1.5.10.3 | www.virtualdub-fr.org || (build 2550/release)
Видео
Идентификатор : 0
Формат : MPEG-4 Visual
Профиль формата : Advanced Simple@L5
Параметр BVOP формата : 1
Параметр QPel формата : Нет
Параметр GMC формата : Без точки перехода
Параметр матрицы формата : Выборочная
Идентификатор кодека : XVID
Идентификатор кодека/Подсказка : XviD
Продолжительность : 1 ч. 41 м.
Битрейт : 1845 Кбит/сек
Ширина : 704 пикселя
Высота : 528 пикселей
Соотношение сторон : 4:3
Частота кадров : 25,000 кадров/сек
Цветовое пространство : YUV
Субдискретизация насыщенности : 4:2:0
Битовая глубина : 8 бит
Тип развёртки : Прогрессивная
Метод сжатия : С потерями
Бит/(Пиксели*Кадры) : 0.199
Размер потока : 1,31 Гбайт (90%)
Библиотека кодирования : XviD 73
Аудио
Идентификатор : 1
Формат : AC-3
Формат/Информация : Audio Coding 3
Расширение режима : CM (complete main)
Параметр Endianness формата : Big
Идентификатор кодека : 2000
Продолжительность : 1 ч. 41 м.
Вид битрейта : Постоянный
Битрейт : 192 Кбит/сек
Каналы : 2 канала
Расположение каналов : Front: L R
Частота : 48,0 КГц
Битовая глубина : 16 бит
Метод сжатия : С потерями
Размер потока : 140 Мбайт (9%)
Выравнивание : Разделение по промежуткам
Продолжительность промежутка : 40 мс. (1,00 видеокадр)
Время предзагрузки промежутка : 500 мс.

Скриншоты


Скачать

Скачать торрент!

Как скачивать? · Что такое торрент? · Рейтинг и ограничения

Сайт не распространяет и не хранит электронные версии произведений, а лишь предоставляет доступ к создаваемому пользователями каталогу ссылок на торрент-файлы, которые содержат только списки хеш-сумм

[Профиль] [ЛС]
Показать сообщения:    
Ответить на тему

Текущее время: Сегодня 04:15

Часовой пояс: GMT + 4



Вы не можете начинать темы
Вы не можете отвечать на сообщения
Вы не можете редактировать свои сообщения
Вы не можете удалять свои сообщения
Вы не можете голосовать в опросах
Вы не можете прикреплять файлы к сообщениям
Вы не можете скачивать файлы