Чтобы выжить (Всеволод Плоткин) [1992, боевик, DVB]

Ответить на тему
 
Автор Сообщение

user ®

Стаж: 7 лет 7 месяцев

Сообщений: 20008

Пост Пост: #1 от 10-Ноя-2013 02:20

[Цитировать]

Чтобы выжить
Жанр: боевик
Год выпуска: 1992
Продолжительность: 01:41:54
Режиссёр: Всеволод Плоткин
В ролях: Владимир Меньшов, Сергей Векслер, Александр Розенбаум, Дмитрий Волков (в титрах Митя Волков), Андрей Щербович-Вечер, Яков Голяков, Мурад Алиев, Анвар Кенджаев, Оксана Салехова, Юрий Горобец, Арсен Амаспюрянц, Анвар Кемджаев, Анвар Азимов, Вячеслав Ушанов, Михаил Богдасаров, Яков Гольдштейн, Д. Вербицкий, Ю. Генжаев, Л. Дувакин, Алексей Кошевой, В. Марков, Алексей Паламарчук, Ш. Шукуров, Шамситдин Юллиев
Описание: Партийная мафия готовит государственный переворот. Ее эмиссар Джафар добывает оружие и устраивает террористические акты. В схватку с ним вступают два отставных офицера.
В лучших традициях 5 канала видео обильно унавожено баннерами. Смотрим три первых скрина. В лучших же традициях на титры положена реклама, в связи с чем титры отрезал.
Качество видео: DVB
Формат видео: MPEG-PS
Видео: MPEG Video, 720(768)x576 (4:3), 25,000 кадров/сек, 3 171 Кбит/сек
Аудио: MPEG Audio, 48,0 КГц, 192 Кбит/сек, 2 канала

MediaInfo

General
Complete name : D:\Torrent\Чтобы выжить\ЧТОБЫ ВЫЖИТЬ (Пятый канал).mpg
Format : MPEG-PS
File size : 2.44 GiB
Duration : 1h 41mn
Overall bit rate mode : Variable
Overall bit rate : 3 431 Kbps
Video
ID : 224 (0xE0)
Format : MPEG Video
Format version : Version 2
Format profile : Main@Main
Format settings, BVOP : Yes
Format settings, Matrix : Custom
Duration : 1h 41mn
Bit rate mode : Variable
Bit rate : 3 171 Kbps
Maximum bit rate : 15.0 Mbps
Width : 720 pixels
Height : 576 pixels
Display aspect ratio : 4:3
Frame rate : 25.000 fps
Standard : PAL
Color space : YUV
Chroma subsampling : 4:2:0
Bit depth : 8 bits
Compression mode : Lossy
Bits/(Pixel*Frame) : 0.306
Stream size : 2.26 GiB (92%)
Audio
ID : 192 (0xC0)
Format : MPEG Audio
Format version : Version 1
Format profile : Layer 2
Duration : 1h 41mn
Bit rate mode : Constant
Bit rate : 192 Kbps
Channel(s) : 2 channels
Sampling rate : 48.0 KHz
Compression mode : Lossy
Stream size : 140 MiB (6%)

Скриншот c названием фильма

Скачать

Скачать торрент!

Как скачивать? · Что такое торрент? · Рейтинг и ограничения

Сайт не распространяет и не хранит электронные версии произведений, а лишь предоставляет доступ к создаваемому пользователями каталогу ссылок на торрент-файлы, которые содержат только списки хеш-сумм

[Профиль] [ЛС]
Показать сообщения:    
Ответить на тему

Текущее время: Сегодня 20:05

Часовой пояс: GMT + 4



Вы не можете начинать темы
Вы не можете отвечать на сообщения
Вы не можете редактировать свои сообщения
Вы не можете удалять свои сообщения
Вы не можете голосовать в опросах
Вы не можете прикреплять файлы к сообщениям
Вы не можете скачивать файлы