Темная сила / Dark Power (Джон Милтон Брэнтон / John Milton Branton) [2013, США, триллер, DVDRip] MVO

Ответить на тему
 
Автор Сообщение

user ®

Стаж: 7 лет 7 месяцев

Сообщений: 20008

Пост Пост: #1 от 09-Ноя-2013 04:00

[Цитировать]

Темная силаDark Power- Страна: США
Жанр: триллер
Год выпуска: 2013
Продолжительность: 01:39:00-Перевод: Профессиональный (многоголосый, закадровый) [НТВ+]
Субтитры: нет
Режиссер: Джон Милтон Брэнтон / John Milton Branton
В ролях: Шон Патрик Флэнери, Кристанна Локен, Крис Кармак, Ричард Глисон, Джеймс С. Бёрнс, Кевин Добсон, Ким Джексон, Сьюэлл Уитни, Эндрю Джеймс Аллен, Роберт Т. Баррет, Джеффри Дин, Сет Ди Марко-Описание: Во время избирательной компании совершается дерзкое убийство действующего мэра. Подозревая, что местные власти могут быть слишком коррумпированы ФБР подключает к расследованию двух своих агентов: циничного Джона Арчера и настырную Милу Драйвер. Очень скоро этим двоим удается обнаружить, что дело намного сложнее, чем предполагалось. Агенты оказываются вовлечены в большую игру. Теперь они должны не только раскрыть дело, следы которого ведут к одной очень влиятельной преступной группировке, но и сохранить свои жизни, поскольку на них уже началась охота.-

-

Доп. Информация

Сценарий: Мигель Паган / Miguel Pagan, Альберто Дж. Родригез / Alberto G. Rodriguez
Продюсер: Ирмгаард Паган / Irmgaard Pagan, Мигель Паган / Miguel Pagan, Кристиан Луна / Cristian Luna
Оператор: Джэйсон Кроверс / Jayson Crothers
Композитор: Гарет Кокер / Gareth Coker
Бюджет: $3 000 000
Мировая премьера: 9 июля 2013
-Качество: DVDRip
Контейнер: AVI
Видео: XviD, 720x400 (16:9), 1768 kbps, 23,976 fps, 0,256 bpp
Аудио: AC3 / 2.0 / 48 kHz / 192 kbps / 16 bit-

Media Info

Общее
Полное имя : G:\Temnaya.sila.2013.P.DVDRip_1400Mb.avi
Формат : AVI
Формат/Информация : Audio Video Interleave
Размер файла : 1,36 Гбайт
Продолжительность : 1 ч. 39 м.
Общий поток : 1970 Кбит/сек
Программа кодирования : VirtualDubMod 1.5.10.2 (build 2540/release)
Библиотека кодирования : VirtualDubMod build 2540/release
Видео
Идентификатор : 0
Формат : MPEG-4 Visual
Профиль формата : Advanced Simple@L5
Параметр BVOP формата : 2
Параметр QPel формата : Нет
Параметр GMC формата : Без точки перехода
Параметр матрицы формата : Default (MPEG)
Идентификатор кодека : XVID
Идентификатор кодека/Подсказка : XviD
Продолжительность : 1 ч. 39 м.
Битрейт : 1768 Кбит/сек
Ширина : 720 пикселей
Высота : 400 пикселей
Соотношение сторон : 16:9
Частота кадров : 23,976 кадра/сек
Цветовое пространство : YUV
Субдискретизация насыщенности : 4:2:0
Битовая глубина : 8 бит
Тип развёртки : Прогрессивная
Метод сжатия : С потерями
Бит/(Пиксели*Кадры) : 0.256
Размер потока : 1,22 Гбайт (90%)
Библиотека кодирования : XviD 1.2.1 (UTC 2008-12-04)
Аудио
Идентификатор : 1
Формат : AC-3
Формат/Информация : Audio Coding 3
Расширение режима : CM (complete main)
Параметр Endianness формата : Big
Идентификатор кодека : 2000
Продолжительность : 1 ч. 38 м.
Вид битрейта : Постоянный
Битрейт : 192 Кбит/сек
Каналы : 2 канала
Расположение каналов : Front: L R
Частота : 48,0 КГц
Битовая глубина : 16 бит
Метод сжатия : С потерями
Размер потока : 136 Мбайт (10%)
Выравнивание : Разделение по промежуткам
Продолжительность промежутка : 42 мс. (1,00 видеокадр)
Время предзагрузки промежутка : 500 мс.

Скриншот с названием фильма

Скриншоты

Скачать

Скачать торрент!

Как скачивать? · Что такое торрент? · Рейтинг и ограничения

Сайт не распространяет и не хранит электронные версии произведений, а лишь предоставляет доступ к создаваемому пользователями каталогу ссылок на торрент-файлы, которые содержат только списки хеш-сумм

[Профиль] [ЛС]
Показать сообщения:    
Ответить на тему

Текущее время: Сегодня 14:35

Часовой пояс: GMT + 4



Вы не можете начинать темы
Вы не можете отвечать на сообщения
Вы не можете редактировать свои сообщения
Вы не можете удалять свои сообщения
Вы не можете голосовать в опросах
Вы не можете прикреплять файлы к сообщениям
Вы не можете скачивать файлы