Дантист 2 / Dentist 2, The (Брайан Юзна / Brian Yuzna) [1998, США, ужасы, триллер, WEB-DL 720p] AVO (Гаврилов) + VO + Sub Eng + Original Eng

Ответить на тему
 
Автор Сообщение

user ®

Стаж: 7 лет 7 месяцев

Сообщений: 20008

Пост Пост: #1 от 08-Ноя-2013 21:40

[Цитировать]

Дантист 2 / Dentist 2, The
Страна: США
Студия: Trimark Pictures & Pierre David
Жанр: ужасы, триллер
Год выпуска: 1998
Продолжительность: 01:38:38
Перевод 1: Авторский (одноголосый закадровый) АНДРЕЙ ГАВРИЛОВ
Перевод 2: Одноголосый закадровый (переводчик неопознан)
Cубтитры: английские
Оригинальная аудиодорожка: английский
Режиссер: Брайан Юзна / Brian Yuzna
В ролях: Корбин Бернсен /Corbin Bernsen/, Джиллиэн МакУиртер /Jillian McWhirter/, Джефф Дусетт /Jeff Doucette/, Сюзанн Райт /Susanne Wright/, Джим Антонио /Jim Antonio/, Ли Доусон /Lee Dawson/, Уэнди Роби /Wendy Robie/, Ралф П. Мартин /Ralph P. Martin/, Клинт Хауард /Clint Howard/, Линда Хоффман /Linda Hoffman/
Описание: Доктора Файнстоуна (Бернсен) все еще мучает ревность - он не может забыть лица изменившей ему жены. Изо всех сил дантист пытается бороться с безумием ( это великолепно передает своей игрой талантливейший актер Корбин Бернсен). Он переехал в другой город, отказался от работы. Когда обедал со своей новой симпатичной знакомой, выскочила пломба. Местный дантист был халтурщиком, плохо поставил пломбу. Доктор Файнстоун приехал к нему домой и столкнул с лестницы. По просьбе мэра Файнстоун занял его место. Потом новое преступление. Галлюцинации преследуют беднягу с еще большей интенсивностью. Жена Файнстоуна тем временем наняла частного детектива, чтобы тот нашел ее супруга... Стандартный, незатейливый сюжет. Есть свой стиль, черный юмор. (Иванов М.)
--------------------------------------------------
Оператор: Юрген Баум /Jurgen Baum/
Сценарист: Ричард Дэйна Смит /Richard Dana Smith/
Продюсер: Пьер Давид /Pierre David/, Ноэл Э. Зэнитш /Noel A. Zanitsch/, Брюс Дэвид Айзен /Bruce David Eisen/
Монтажер: Кристофер Д. Рот /Christopher D. Roth/
Композитор: Элан Хауорт /Alan Howarth/
Художник: Хелен Харуэлл /Helen Harwell/
Костюмы: Нанетт Акоста /Nanette Acosta/
Исполнительный продюсер: Марк Эмин /Mark Amin/, Грим: Энтони С. Ферранте /Anthony C. Ferrante/
Сопродюсер: Кен Сэндерс /Ken Sanders/
Ассоциативный продюсер: Корбин Бернсен /Corbin Bernsen/
Кастинг: Эрон Гриффит /Aaron Griffith/
--------------------------------------------------
КИНОПОИСК. RU
РЕЙТИНГ 5,576 оценки: 254
3,8/10 from 2 088 users
--------------------------------------------------
--------------------------------------------------
СЭМПЛ
--------------------------------------------------
Примечание: Скорость маленькая 50 kb/c, но раздаю круглосуточно.
--------------------------------------------------
Тип релиза: WEB-DL 720p
Контейнер: MKV
Видео: 1280x672; 23.976 fps; ~ 4 191 Kbps; 0.203 Bits/Pixel
Аудио 1: Russian - 48 kHz, AC3 Dolby Digital, 2/0 (L,R) 2ch, ~192 kbps - Андрей Гаврилов
Аудио 2: Russian - 48 kHz, AC3 Dolby Digital, 2/0 (L,R) 2ch, ~192 kbps - VO
Аудио 3: English - 48 kHz, AC3 Dolby Digital, 2/0 (L,R) ch, ~192 kbps, - Original
Формат субтитров: English (*UTF-8)

MediaInfo

General
Complete name : F:\EXCLUZIVE=19\ДАНТИСТ 2=Dentist 2, The.1998\Dentist 2, The.1998\The.Dentist.2.1998.720p.WEB-DL.mkv
Format : Matroska
File size : 3.35 GiB
Duration : 1h 38mn
Overall bit rate : 4 863 Kbps
Encoded date : UTC 2013-11-07 11:30:50
Writing application : mkvmerge v3.3.0 ('Language') built on Mar 24 2010 14:59:24
Writing library : libebml v0.8.0 + libmatroska v0.9.0
Video
ID : 1
Format : AVC
Format/Info : Advanced Video Codec
Format profile : High@L3.1
Format settings, CABAC : No
Format settings, ReFrames : 2 frames
Muxing mode : Container profile=Unknown@3.1
Codec ID : V_MPEG4/ISO/AVC
Duration : 1h 38mn
Bit rate : 4 191 Kbps
Width : 1 280 pixels
Height : 672 pixels
Display aspect ratio : 1.905
Frame rate : 23.976 fps
Color space : YUV
Chroma subsampling : 4:2:0
Bit depth : 8 bits
Scan type : Progressive
Bits/(Pixel*Frame) : 0.203
Stream size : 2.89 GiB (86%)
Title : The.Dentist.2.1998.
Language : English
Color primaries : BT.709-5, BT.1361, IEC 61966-2-4, SMPTE RP177
Transfer characteristics : BT.709-5, BT.1361
Matrix coefficients : BT.709-5, BT.1361, IEC 61966-2-4 709, SMPTE RP177
Audio #1
ID : 2
Format : AC-3
Format/Info : Audio Coding 3
Mode extension : CM (complete main)
Codec ID : A_AC3
Duration : 1h 38mn
Bit rate mode : Constant
Bit rate : 192 Kbps
Channel(s) : 2 channels
Channel positions : Front: L R
Sampling rate : 48.0 KHz
Stream size : 135 MiB (4%)
Title : AVO (Гаврилов) @ AC3 2ch. 192 kbps
Language : Russian
Audio #2
ID : 3
Format : AC-3
Format/Info : Audio Coding 3
Mode extension : CM (complete main)
Codec ID : A_AC3
Duration : 1h 38mn
Bit rate mode : Constant
Bit rate : 192 Kbps
Channel(s) : 2 channels
Channel positions : Front: L R
Sampling rate : 48.0 KHz
Stream size : 135 MiB (4%)
Title : VO @ AC3 2ch. 192 kbps
Language : Russian
Audio #3
ID : 4
Format : AC-3
Format/Info : Audio Coding 3
Mode extension : CM (complete main)
Codec ID : A_AC3
Duration : 1h 38mn
Bit rate mode : Constant
Bit rate : 192 Kbps
Channel(s) : 2 channels
Channel positions : Front: L R
Sampling rate : 48.0 KHz
Stream size : 135 MiB (4%)
Title : Original @ AC3 2ch. 192 kbps
Language : English
Text
ID : 5
Format : UTF-8
Codec ID : S_TEXT/UTF8
Codec ID/Info : UTF-8 Plain Text
Title : (* UTF-8)
Language : English
Menu
00:00:00.000 : en:Chapter 1
00:07:28.000 : en:Chapter 2
00:16:45.000 : en:Chapter 3
00:27:03.000 : en:Chapter 4
00:35:29.000 : en:Chapter 5
00:45:20.000 : en:Chapter 6
00:55:38.000 : en:Chapter 7
01:04:19.000 : en:Chapter 8
01:17:28.000 : en:Chapter 9
01:28:05.000 : en:Chapter 10
01:35:31.000 : en:Chapter 11

Скриншоты

, ,
, ,
, ,
Скачать

Скачать торрент!

Как скачивать? · Что такое торрент? · Рейтинг и ограничения

Сайт не распространяет и не хранит электронные версии произведений, а лишь предоставляет доступ к создаваемому пользователями каталогу ссылок на торрент-файлы, которые содержат только списки хеш-сумм

[Профиль] [ЛС]
Показать сообщения:    
Ответить на тему

Текущее время: Сегодня 04:45

Часовой пояс: GMT + 4



Вы не можете начинать темы
Вы не можете отвечать на сообщения
Вы не можете редактировать свои сообщения
Вы не можете удалять свои сообщения
Вы не можете голосовать в опросах
Вы не можете прикреплять файлы к сообщениям
Вы не можете скачивать файлы