Как лиса волка судила (Игорь Волчек) [1989 г., Мультфильм, DVDRip]

Ответить на тему
 
Автор Сообщение

user ®

Стаж: 7 лет 7 месяцев

Сообщений: 20008

Пост Пост: #1 от 08-Ноя-2013 03:30

[Цитировать]

Как лиса волка судилаСтрана: СССР
Жанр: Мультфильм
Продолжительность: 0:10:03
Год выпуска: 1989
Выпущено: «Беларусьфильм»
Русские субтитры: нет
Режиссёр Игорь Волчек
Роли озвучили: Геннадий Овсянников, Александр Ефремов, Светлана Суховей, Владислав Бондаренко.Описание:По мотивам белорусской народной сказки.
Вся деревня гуляет на свадьбе танкиста. Волк, в надежде поживиться съестным, прокрался в амбар, но там напоролся на козлов-металлистов-каратистов. Наделав много шума, Волк пустился наутёк. За ним в погоню бросилась вся свадьба. Спас Волка попавшийся по пути мужик, но, когда опасность миновала, Волк заявил, что теперь он съест мужичка. Тот потребовал поискать кого-нибудь, кто рассудил бы их по справедливости…

Команда

Режиссёр Игорь Волчек
сценарист: Игорь Волчек
художник-постановщик: Д. Эпштейн
xудожники: Н. Маринина, Д. Машков, Анжелика Орленко, Б. Лакс, Т. Злотская, Леонарда Зубенко, В. Немова, А. Антипов, А. Блохин, М. Флерова, А. Жуковина
аниматоры: Юрий Бутырин, Игорь Волчек, Д. Эпштейн, Андрей Смирнов
оператор: С. Милешкин
композитор Игорь Волчек
звукорежиссёр С. Чупров
редактор Дмитрий Якутович
Роли озвучили: Геннадий Овсянников, Александр Ефремов, Светлана Суховей, Владислав Бондаренко.
директор О. Оноприенко
монтажёр Наталья Волчек
Качество: DVDRip
Формат: AVI
Видео: 720x544 (1.32:1), 25 fps, XviD build 64 ~2377 kbps avg, 0.24 bit/pixel
Аудио: 48 kHz, AC3 Dolby Digital, 2/0 (L,R) ch, ~192 kbps
Субтитры: отсутствуют

Подробные технические данные

ОбщееПолное имя : D:\Мульты\Kak_lisa_volka_sudila.aviФормат : AVIФормат/Информация : Audio Video InterleaveРазмер файла : 186 МбайтПродолжительность : 10 м.Общий поток : 2579 Кбит/секПрограмма кодирования : VirtualDubMod 1.5.10.2 (build 2540/release)Библиотека кодирования : VirtualDubMod build 2540/release
ВидеоИдентификатор : 0Формат : MPEG-4 VisualПрофиль формата : Advanced Simple@L5Параметр BVOP формата : 2Параметр QPel формата : НетПараметр GMC формата : Без точки переходаПараметр матрицы формата : ВыборочнаяИдентификатор кодека : XVIDИдентификатор кодека/Подсказка : XviDПродолжительность : 10 м.Битрейт : 2377 Кбит/секШирина : 720 пикселейВысота : 544 пикселяСоотношение сторон : 4:3Частота кадров : 25,000 кадров/секЦветовое пространство : YUVСубдискретизация насыщенности : 4:2:0Битовая глубина : 8 битТип развёртки : ПрогрессивнаяМетод сжатия : С потерямиБит/(Пиксели*Кадры) : 0.243Размер потока : 171 Мбайт (92%)Библиотека кодирования : XviD 64
АудиоИдентификатор : 1Формат : AC-3Формат/Информация : Audio Coding 3Расширение режима : CM (complete main)Идентификатор кодека : 2000Продолжительность : 10 м.Вид битрейта : ПостоянныйБитрейт : 192 Кбит/секКаналы : 2 каналаРасположение каналов : Front: L RЧастота : 48,0 КГцБитовая глубина : 16 битМетод сжатия : С потерямиРазмер потока : 13,8 Мбайт (7%)Выравнивание : Разделение по промежуткамПродолжительность промежутка : 40 мс. (1,00 видеокадр)Время предзагрузки промежутка : 500 мс.
Subtitles: Not Present

Скриншоты

Скачать

Скачать торрент!

Как скачивать? · Что такое торрент? · Рейтинг и ограничения

Сайт не распространяет и не хранит электронные версии произведений, а лишь предоставляет доступ к создаваемому пользователями каталогу ссылок на торрент-файлы, которые содержат только списки хеш-сумм

[Профиль] [ЛС]
Показать сообщения:    
Ответить на тему

Текущее время: Сегодня 10:05

Часовой пояс: GMT + 4



Вы не можете начинать темы
Вы не можете отвечать на сообщения
Вы не можете редактировать свои сообщения
Вы не можете удалять свои сообщения
Вы не можете голосовать в опросах
Вы не можете прикреплять файлы к сообщениям
Вы не можете скачивать файлы