Братва из джунглей / Delhi Safari (Никхил Адвани / Nikhil Advani) [2012, мультфильм, HDRip] Dub

Ответить на тему
 
Автор Сообщение

user ®

Стаж: 13 лет

Сообщений: 15041

Пост Пост: #1 от 07-Ноя-2013 21:50

[Цитировать]

Братва из джунглей / Delhi Safari- Страна: Индия
Жанр: мультфильм
Продолжительность: 01:36:38
Год выпуска: 2012
Перевод: Профессиональный (дублированный)
Субтитры: нет
Режиссёр: Никхил Адвани / Nikhil Advani
В ролях: Говинда, Акшай Кханна, Урмила Матондкар, Боман Ирани, Свини Кхера, Прем Чопра, Саурабх Шукла, Санджай Мишра, Дипак Добриял, Гириш Дхамиджа.
Описание: Животные — обитатели национального парка возле Бомбея — встречают яркое солнечное утро под пение птиц. И вдруг идиллическую картинку дикой природы нарушает страшный грохот. Это, круша все на своем пути, джунгли атакует человек на бульдозере. На месте прекрасной рощи люди водружают табличку: здесь идет строительство жилого комплекса.
Смертельно напуганные звери ночью собираются на совет. Юный леопард Юви горячо убеждает взрослых не бросать свои жилища. «Горячая голова» воин-обезьяна, Бахранжи, готов объявить смертельную войну незваным гостям, но Гуру в области конфликтологии, медведь Багга предлагает договориться с людьми по-хорошему. Одомашненный говорящий попугай Алекс решает присоединиться к друзьям, чтобы выступить переводчиком.
Разношерстная компания пускается в долгое путешествие в столицу. Через горы и реки, на поездах и грузовиках, чтобы найти Главного Начальника и передать ему свое прошение. По дороге выясняется, что не только их дома, но и жилища тысяч других животных находятся в опасности. В финале захватывающего приключения различные животные становятся друзьями, поскольку их объединяет борьба за общий ДОМ.
Релиз: Ironclub
Качество: HDRip
Формат: AVI | Sample
Видео: 720x304 (2.35:1), 23.976 fps, XviD 64 ~ 1698 kbps avg, 0.32 bit/pixel
Аудио: 48 kHz, AC3 Dolby Digital, 3/2 (L,C,R,l,r) + LFE ch, ~448.00 kbps avg

Скриншоты

Медиаинфо

Format : AVIFormat/Info : Audio Video InterleaveFile size : 1.46 GiBDuration : 1h 36mnOverall bit rate : 2 156 KbpsMovie name : Bratva.iz.dzhunglej.2012.HDRipDirector : IRONCLUBWriting application : VirtualDubMod 1.5.10.2 (build 2540/release)Original source form/Name : Cartoon
VideoID : 0Format : MPEG-4 VisualFormat profile : Advanced Simple@L5Format settings, BVOP : YesFormat settings, QPel : NoFormat settings, GMC : No warppointsFormat settings, Matrix : CustomCodec ID : XVIDCodec ID/Hint : XviDDuration : 1h 36mnBit rate : 1 698 KbpsWidth : 720 pixelsHeight : 304 pixelsDisplay aspect ratio : 2.35:1Frame rate : 23.976 fpsColor space : YUVChroma subsampling : 4:2:0Bit depth : 8 bitsScan type : ProgressiveBits/(Pixel*Frame) : 0.324Stream size : 1.15 GiB (79%)Writing library : XviD 64
AudioID : 1Format : AC-3Format/Info : Audio Coding 3Mode extension : CM (complete main)Codec ID : 2000Duration : 1h 36mnBit rate mode : ConstantBit rate : 448 KbpsChannel(s) : 6 channelsChannel positions : Front: L C R, Side: L R, LFESampling rate : 48.0 KHzBit depth : 16 bitsStream size : 310 MiB (21%)Alignment : Split accross interleavesInterleave, duration : 42 ms (1.00 video frame)Interleave, preload duration : 500 ms
Скачать

Скачать торрент! Братва из джунглей / Delhi Safari (Никхил Адвани / Nikhil Advani) [2012, мультфильм, HDRip] Dub

Как скачивать? · Что такое торрент? · Рейтинг и ограничения

Сайт не распространяет и не хранит электронные версии произведений, а лишь предоставляет доступ к создаваемому пользователями каталогу ссылок на торрент-файлы, которые содержат только списки хеш-сумм

[Профиль] [ЛС]
Показать сообщения:    
Ответить на тему

Текущее время: Сегодня 23:33

Часовой пояс: GMT + 4



Вы не можете начинать темы
Вы не можете отвечать на сообщения
Вы не можете редактировать свои сообщения
Вы не можете удалять свои сообщения
Вы не можете голосовать в опросах
Вы не можете прикреплять файлы к сообщениям
Вы не можете скачивать файлы