Американский психопат 2: Стопроцентная американка / American Psycho II: All American Girl (Морган Дж. Фриман / Morgan J. Freeman) [2002, США, триллер, криминал, WEB-DL 720p] DVO + Sub (Rus, Eng) + Original Eng

Ответить на тему
 
Автор Сообщение

user ®

Стаж: 7 лет 7 месяцев

Сообщений: 20008

Пост Пост: #1 от 07-Ноя-2013 00:40

[Цитировать]

Американский психопат 2: Стопроцентная американка /
American Psycho II: All American Girl
- Страна: США
Жанр: триллер, криминал
Год выпуска: 2002
Продолжительность: 01:28:29
Перевод: Профессиональный (двухголосый закадровый)
Cубтитры: русские, английские
Оригинальная аудиодорожка: английский-Режиссер: Морган Дж. Фриман / Morgan J. Freeman
В ролях: Мила Кунис (Mila Kunis), Уильям Шетнер (William Shatner), Робин Данн (Robin Dunne), Линди Бут (Lindy Booth), Дженна Перри (Jenna Perry), Кейт Келтон (Kate Kelton), Консетиа Хэмилтон (Quancetia Hamilton)-Описание: Никто не знал, что знаменитому американскому психопату Патрику Бэйтману помогла отправиться на тот свет маленькая Рейчел, не задумываясь вонзив нож ему в спину. Теперь девочка выросла и поступила в престижный колледж на курсы профессора-криминалиста Роберта Старкмана, знаменитого «охотника на маньяков».
У студентки далеко идущие планы: тот, кто станет помощником Старкмана, обязательно поступит в престижную академию ФБР, а Рейчел так хочется пойти по стопам профессора. Жаль только, что у нее много конкурентов, но не беда — их легко устранить, когда прилежно штудируешь методы легендарных убийц.
Ради этого решительная девушка готова стать новой «американской психопаткой», но сможет ли она добиться желанной цели, не повторив судьбу своего кумира Патрика Бэйтмана?-
-Тип релиза: WEB-DL 720p
Контейнер: MKV
Видео: AVC, 1280x716, 3984 Kbps, 23.976 fps
Аудио 1: AC3, 48000 Hz, 384 Kbps, 5.1 channels - DVO
Аудио 2: AC3, 48000 Hz, 384 Kbps, 5.1 channels - ENG
Формат субтитров: softsub (SRT) - русские, английские-

Скриншоты


Резервные скриншоты



-

MediaInfo

Format : Matroska
Format version : Version 4 / Version 2
File size : 3.00 GiB
Duration : 1h 28mn
Overall bit rate : 4 848 Kbps
Movie name : Американский психопат 2: Стопроцентная американка / American Psycho II: All American Girl (2002) WEB-DL 720p
Encoded date : UTC 2013-11-06 14:24:09
Writing application : mkvmerge v6.5.0 ('Isn't she lovely') built on Oct 20 2013 12:50:05
Writing library : libebml v1.3.0 + libmatroska v1.4.1
Attachment : Yes
Video
ID : 1
Format : AVC
Format/Info : Advanced Video Codec
Format profile : High@L3.1
Format settings, CABAC : No
Format settings, ReFrames : 2 frames
Format settings, GOP : M=2, N=74
Codec ID : V_MPEG4/ISO/AVC
Duration : 1h 28mn
Bit rate : 3 984 Kbps
Width : 1 280 pixels
Height : 716 pixels
Display aspect ratio : 16:9
Frame rate : 23.976 fps
Color space : YUV
Chroma subsampling : 4:2:0
Bit depth : 8 bits
Scan type : Progressive
Bits/(Pixel*Frame) : 0.181
Stream size : 2.46 GiB (82%)
Title : HD4Fun & RG Torrents.ru
Language : English
Default : Yes
Forced : No
Color primaries : BT.709-5, BT.1361, IEC 61966-2-4, SMPTE RP177
Transfer characteristics : BT.709-5, BT.1361
Matrix coefficients : BT.709-5, BT.1361, IEC 61966-2-4 709, SMPTE RP177
Audio #1
ID : 2
Format : AC-3
Format/Info : Audio Coding 3
Mode extension : CM (complete main)
Codec ID : A_AC3
Duration : 1h 28mn
Bit rate mode : Constant
Bit rate : 384 Kbps
Channel(s) : 6 channels
Channel positions : Front: L C R, Side: L R, LFE
Sampling rate : 48.0 KHz
Bit depth : 16 bits
Compression mode : Lossy
Stream size : 243 MiB (8%)
Language : Russian
Default : Yes
Forced : No
Audio #2
ID : 3
Format : AC-3
Format/Info : Audio Coding 3
Mode extension : CM (complete main)
Codec ID : A_AC3
Duration : 1h 28mn
Bit rate mode : Constant
Bit rate : 384 Kbps
Channel(s) : 6 channels
Channel positions : Front: L C R, Side: L R, LFE
Sampling rate : 48.0 KHz
Bit depth : 16 bits
Compression mode : Lossy
Stream size : 243 MiB (8%)
Language : English
Default : No
Forced : No
Text #1
ID : 4
Format : UTF-8
Codec ID : S_TEXT/UTF8
Codec ID/Info : UTF-8 Plain Text
Language : Russian
Default : No
Forced : No
Text #2
ID : 5
Format : UTF-8
Codec ID : S_TEXT/UTF8
Codec ID/Info : UTF-8 Plain Text
Language : English
Default : No
Forced : No
Menu
00:00:00.000 : en:Overnight Sensation
00:03:54.000 : en:Contenders
00:08:31.000 : en:School Policy
00:13:09.000 : en:Not Taking No
00:17:09.000 : en:Confess
00:21:30.000 : en:With A Condom
00:25:13.000 : en:First Session
00:27:33.000 : en:Privacy Code
00:32:26.000 : en:Letting Down
00:35:40.000 : en:Good Day Doctor
00:38:45.000 : en:He Was Both
00:42:23.000 : en:Good For Her
00:45:38.000 : en:The Big Day
00:49:00.000 : en:Relaxing Bobby
00:52:58.000 : en:Heart Breaker
00:57:11.000 : en:Confused
00:59:14.000 : en:Plans With Mom
01:02:38.000 : en:Dinner
01:05:57.000 : en:Catching Up
01:08:43.000 : en:Missing Persons
01:12:16.000 : en:Under Control
01:16:32.000 : en:Old Mill Bend
01:19:16.000 : en:Two Years Later
01:22:59.000 : en:End Credits
Скачать

Скачать торрент!

Как скачивать? · Что такое торрент? · Рейтинг и ограничения

Сайт не распространяет и не хранит электронные версии произведений, а лишь предоставляет доступ к создаваемому пользователями каталогу ссылок на торрент-файлы, которые содержат только списки хеш-сумм

[Профиль] [ЛС]
Показать сообщения:    
Ответить на тему

Текущее время: Сегодня 22:03

Часовой пояс: GMT + 4



Вы не можете начинать темы
Вы не можете отвечать на сообщения
Вы не можете редактировать свои сообщения
Вы не можете удалять свои сообщения
Вы не можете голосовать в опросах
Вы не можете прикреплять файлы к сообщениям
Вы не можете скачивать файлы