Лепрекон 3: Приключения в Лас-Вегасе / Leprechaun 3 (Брайан Тренчард-Смит / Brian Trenchard-Smith) [1995, США, Комедия / Ужасы, WEB-DL 720p] MVO + AVO (Гаврилов) + Sub Eng + Original Eng

Ответить на тему
 
Автор Сообщение

user ®

Стаж: 7 лет 7 месяцев

Сообщений: 20008

Пост Пост: #1 от 04-Ноя-2013 13:50

[Цитировать]

Лепрекон 3: Приключения в Лас-Вегасе / Leprechaun 3
Страна: США
Жанр: Комедия / Ужасы
Год выпуска: 1995
Продолжительность: 01:33:32
Перевод: Профессиональный (многоголосый закадровый)
Перевод 2: Авторский (одноголосый закадровый) Гаврилов
Cубтитры: английские
Оригинальная аудиодорожка: английский
Режиссер: Брайан Тренчард-Смит / Brian Trenchard-Smith
В ролях: Уорвик Дэвис /Warwick Davis/, Джон Гэйтинс /John Gatins/, Ли Армстронг /Lee Armstrong/, МарселоТуберт/Marcelo Tubert/, Джон Демита /John DeMita/
Описание: В руки жадному скупщику, работающему в ломбарде расположенном в Лас-Вегасе, попадает каменная статуэтка, изображающая некоего уродца. Наплевав на наказание продавца “ни при каких условиях не снимать надетый на шею статуи талисман”, вместе с драгоценностью скупщик снимает проклятие с Лепрекона. Тот оживает, сея на своем пути смерть и ужас, а однажды, в поисках оброненного золотого шилли нга, попадает в казино, где чувствует себя, как дома..
Сэмпл: http://multi-up.com/919496
Тип релиза: WEB-DL 720p
Контейнер: MKV
Видео: 1280*718, 23,976 кадра/сек, 4298 Kbps
Аудио: AC3 Dolby Digital 256.00 kbps avg 2/0 (L,R) ch 48 kHz - Многоголосный
Аудио 2: AC3 Dolby Digital 128.00 kbps avg 2/0 (L,R) ch 48 kHz - Гаврилов
Аудио 3: AAC, 2 ch, 48 kHz, 158 Kbps-английский

MediaInfo

Общее
Уникальный идентификатор : 202874736925114744988741840301286317103 (0x98A040C9E022C1C9901CA25BD72D5C2F)
Полное имя : P:\Leprechaun.3.1995.720p.WEB-DL.AAC2.0.H.264-(RG avi-avc).mkv
Формат : Matroska
Версия формата : Version 2
Размер файла : 3,16 Гбайт
Продолжительность : 1 ч. 33 м.
Общий поток : 4844 Кбит/сек
Название фильма : ripped by HD4FUN.COM
Дата кодирования : UTC 2013-11-02 18:01:41
Программа кодирования : mkvmerge v5.5.0 ('Healer') built on Apr 6 2012 21:43:24
Библиотека кодирования : libebml v1.2.3 + libmatroska v1.3.0
Видео
Идентификатор : 1
Формат : AVC
Формат/Информация : Advanced Video Codec
Профиль формата : High@L3.1
Параметр CABAC формата : Нет
Параметр ReFrames формата : 2 кадра
Идентификатор кодека : V_MPEG4/ISO/AVC
Продолжительность : 1 ч. 33 м.
Ширина : 1280 пикселей
Высота : 718 пикселей
Соотношение сторон : 16:9
Режим частоты кадров : Постоянный
Частота кадров : 23,976 кадра/сек
Цветовое пространство : YUV
Субдискретизация насыщенности : 4:2:0
Битовая глубина : 8 бит
Тип развёртки : Прогрессивная
Язык : English
Default : Да
Forced : Нет
Основные цвета : BT.709
Характеристики трансфера : BT.709
Коэффициенты матрицы : BT.709
Аудио #1
Идентификатор : 2
Формат : AC-3
Формат/Информация : Audio Coding 3
Расширение режима : CM (complete main)
Параметр Endianness формата : Big
Идентификатор кодека : A_AC3
Продолжительность : 1 ч. 33 м.
Вид битрейта : Постоянный
Битрейт : 192 Кбит/сек
Каналы : 2 канала
Расположение каналов : Front: L R
Частота : 48,0 КГц
Битовая глубина : 16 бит
Метод сжатия : С потерями
Размер потока : 128 Мбайт (4%)
Заголовок : многоголоска
Язык : Russian
Default : Да
Forced : Нет
Аудио #2
Идентификатор : 3
Формат : AC-3
Формат/Информация : Audio Coding 3
Расширение режима : CM (complete main)
Параметр Endianness формата : Big
Идентификатор кодека : A_AC3
Продолжительность : 1 ч. 33 м.
Вид битрейта : Постоянный
Битрейт : 192 Кбит/сек
Каналы : 2 канала
Расположение каналов : Front: L R
Частота : 48,0 КГц
Битовая глубина : 16 бит
Метод сжатия : С потерями
Размер потока : 128 Мбайт (4%)
Заголовок : Гаврилов
Язык : Russian
Default : Нет
Forced : Нет
Аудио #3
Идентификатор : 4
Формат : AAC
Формат/Информация : Advanced Audio Codec
Профиль формата : LC
Идентификатор кодека : A_AAC
Продолжительность : 1 ч. 33 м.
Каналы : 2 канала
Расположение каналов : Front: L R
Частота : 48,0 КГц
Метод сжатия : С потерями
Язык : English
Default : Нет
Forced : Нет
Текст
Идентификатор : 5
Формат : UTF-8
Идентификатор кодека : S_TEXT/UTF8
Идентификатор кодека/Информация : UTF-8 Plain Text
Язык : English
Default : Нет
Forced : Нет
Меню
00:00:00.000 : en:Chapter 1
00:08:16.000 : en:Chapter 2
00:16:03.000 : en:Chapter 3
00:24:00.000 : en:Chapter 4
00:32:40.000 : en:Chapter 5
00:40:42.000 : en:Chapter 6
00:49:04.000 : en:Chapter 7
00:59:04.000 : en:Chapter 8
01:08:45.000 : en:Chapter 9
01:16:10.000 : en:Chapter 10
01:24:26.000 : en:Chapter 11

Скриншоты

Скачать

Скачать торрент!

Как скачивать? · Что такое торрент? · Рейтинг и ограничения

Сайт не распространяет и не хранит электронные версии произведений, а лишь предоставляет доступ к создаваемому пользователями каталогу ссылок на торрент-файлы, которые содержат только списки хеш-сумм

[Профиль] [ЛС]
Показать сообщения:    
Ответить на тему

Текущее время: Сегодня 00:08

Часовой пояс: GMT + 4



Вы не можете начинать темы
Вы не можете отвечать на сообщения
Вы не можете редактировать свои сообщения
Вы не можете удалять свои сообщения
Вы не можете голосовать в опросах
Вы не можете прикреплять файлы к сообщениям
Вы не можете скачивать файлы