Главный бой Мухаммеда Али / Muhammad Ali\'s Greatest Fight (Стивен Фрирз / Stephen Frears) [2013, США, драма, HDTV 1080i] MVO + Sub Eng + Original Eng

Ответить на тему
 
Автор Сообщение

user ®

Стаж: 7 лет 7 месяцев

Сообщений: 20008

Пост Пост: #1 от 04-Ноя-2013 13:50

[Цитировать]

Главный бой Мухаммеда Али / Muhammad Ali's Greatest Fight
Страна: США
Жанр: драма
Год выпуска: 2013
Продолжительность: 01:38:04
Перевод: Профессиональный (многоголосый закадровый)
Cубтитры: английские [SDH]
Оригинальная аудиодорожка: английский
-
Режиссер: Стивен Фрирз / Stephen Frears
В ролях: Пабло Шрайбер, Кристофер Пламмер, Дэнни Гловер, Бенджамин Уокер, Фрэнк Ланджелла, Барри Левинсон, Эд Бегли мл., Боб Бэлабан, Мухаммед Али, Дэна Айви
-
Описание: На пике карьеры Мохаммеда Али собираются отправить воевать во Вьетнам. Его отказ от службы в американской армии по религиозным соображениям порождает беспрецедентную юридическую битву, в которую оказалась вовлечена высшая судебная инстанция США - Верховный суд. Уважаемый судья Харлан обнаруживает, что с его точкой зрения на проблему не согласен недавно присоединившийся к его кабинету молодой юрист Конноли. Ему приходится убеждать остальных восемь судей, в том числе и главного судью, назначенного президентом Никсоном, пересмотреть вопрос о виновности Мохаммеда Али.

Тип релиза: HDTV 1080i
Контейнер: MKV
Видео: MPEG-2 / NTSC 16:9 / 1920x1080 (1,85:1) / 11407 kbps / 29,970 fps / 0.180 bit/pixel / Main@High
Аудио 1: Russian / AC3 / 48 kHz / 5.1 Ch / 384 kbps / 16 bit / MVO
Аудио 2: English / AC3 / 48 kHz / 5.1 Ch / 384 kbps / 16 bit / Original
Формат субтитров: softsub (SRT)

MediaInfo

Общее
Уникальный идентификатор : 170578099126467279610857369729104574338 (0x8054259B012A477F9303DA36001B7782)
Полное имя : W:\HDTV\Muhammad Ali's Greatest Fight.2013.HDTV.1080i.mkv
Формат : Matroska
Версия формата : Version 4 / Version 2
Размер файла : 8,34 Гбайт
Продолжительность : 1 ч. 38 м.
Режим общего битрейта : Переменный
Общий поток : 12,2 Мбит/сек
Дата кодирования : UTC 2013-11-03 19:01:10
Программа кодирования : mkvmerge v6.5.0 ('Isn't she lovely') built on Oct 20 2013 12:50:05
Библиотека кодирования : libebml v1.3.0 + libmatroska v1.4.1
Видео
Идентификатор : 1
Формат : MPEG Video
Версия формата : Version 2
Профиль формата : Main@High
Параметр BVOP формата : Нет
Параметр матрицы формата : Выборочная
Идентификатор кодека : V_MPEG2
Идентификатор кодека/Информация : MPEG 1 or 2 Video
Продолжительность : 1 ч. 38 м.
Вид битрейта : Переменный
Битрейт : 11,2 Мбит/сек
Максимальный битрейт : 24,0 Мбит/сек
Ширина : 1920 пикселей
Высота : 1080 пикселей
Соотношение сторон : 16:9
Режим частоты кадров : Постоянный
Частота кадров : 29,970 кадров/сек
Цветовое пространство : YUV
Субдискретизация насыщенности : 4:2:0
Битовая глубина : 8 бит
Тип развёртки : Чересстрочная
Порядок развёртки : Верхнее поле первое
Метод сжатия : С потерями
Бит/(Пиксели*Кадры) : 0.180
Временной код первого кадра : 00:00:00;00
Оригинал временного кода : Group of pictures header
Размер потока : 7,65 Гбайт (92%)
Язык : English
Default : Да
Forced : Нет
Аудио #1
Идентификатор : 2
Формат : AC-3
Формат/Информация : Audio Coding 3
Расширение режима : CM (complete main)
Параметр Endianness формата : Big
Идентификатор кодека : A_AC3
Продолжительность : 1 ч. 38 м.
Вид битрейта : Постоянный
Битрейт : 384 Кбит/сек
Каналы : 6 каналов
Расположение каналов : Front: L C R, Side: L R, LFE
Частота : 48,0 КГц
Битовая глубина : 16 бит
Метод сжатия : С потерями
Размер потока : 269 Мбайт (3%)
Заголовок : MVO
Язык : Russian
Default : Да
Forced : Нет
Аудио #2
Идентификатор : 3
Формат : AC-3
Формат/Информация : Audio Coding 3
Расширение режима : CM (complete main)
Параметр Endianness формата : Big
Идентификатор кодека : A_AC3
Продолжительность : 1 ч. 38 м.
Вид битрейта : Постоянный
Битрейт : 384 Кбит/сек
Каналы : 6 каналов
Расположение каналов : Front: L C R, Side: L R, LFE
Частота : 48,0 КГц
Битовая глубина : 16 бит
Метод сжатия : С потерями
Размер потока : 269 Мбайт (3%)
Заголовок : Original
Язык : English
Default : Нет
Forced : Нет
Текст
Идентификатор : 4
Формат : UTF-8
Идентификатор кодека : S_TEXT/UTF8
Идентификатор кодека/Информация : UTF-8 Plain Text
Заголовок : Original [SDH]
Язык : English
Default : Нет
Forced : Нет

Скриншоты

Скачать

Скачать торрент!

Как скачивать? · Что такое торрент? · Рейтинг и ограничения

Сайт не распространяет и не хранит электронные версии произведений, а лишь предоставляет доступ к создаваемому пользователями каталогу ссылок на торрент-файлы, которые содержат только списки хеш-сумм

[Профиль] [ЛС]
Показать сообщения:    
Ответить на тему

Текущее время: Сегодня 02:05

Часовой пояс: GMT + 4



Вы не можете начинать темы
Вы не можете отвечать на сообщения
Вы не можете редактировать свои сообщения
Вы не можете удалять свои сообщения
Вы не можете голосовать в опросах
Вы не можете прикреплять файлы к сообщениям
Вы не можете скачивать файлы