Дети / Орудие смерти / A-i-deul... / Children (Ли Гю Ман / Lee Kyoo Man) [2011, Корея Южная, триллер, криминал, DVDRip] MVO

Ответить на тему
 
Автор Сообщение

user ®

Стаж: 11 лет

Сообщений: 15151

Пост Пост: #1 от 03-Ноя-2013 21:15

[Цитировать]

Орудие смертиA-i-deul...- Страна: Корея Южная
Жанр: триллер, криминал
Год выпуска: 2011
Продолжительность: 02:06:17-Перевод: Профессиональный (многоголосый, закадровый) Лицензия
Субтитры: нет
Режиссер: Ли Гю Ман / Lee Kyoo Man
В ролях: Пак Ён У, Рю Сын Рён, Сон Дон Иль, Сон Чжи Ру, Ким Ё Чжин, Пак Пён Ын, Ким Гу Тхэк, Ми-хён Пак, Ли Сан Хи, Ток-чжэ Чжо, Юн-хва Сео, Sang-baek Nam-Описание: Фильм основан на реальной истории - нераскрытом убийстве, известном в Корее под названием «исчезновение лягушачьих детей». В 1991 году пять учеников начальной школы сказали своим родителям, что собираются наловить лягушек на близлежащей горе. Они никогда не вернулись домой.-

-

Доп. Информация

Сценарий: Хён-чжин Ли / Hyeon-jin Lee, Ли Гю Ман / Lee Kyoo Man
Продюсер: Йонг Хо Ли / Yong Ho Lee, Кван-ик Сон / Kwang-ik Son, Чжу-ён Ом / Joo-young Uhm
Оператор: Ки Се Хун / Ki Se Hoon
Композитор: Сенг-Хюн Чои / Seung-hyun Choi
Мировая премьера: 17 февраля 2011
Релиз на DVD: 31 октября 2013,
«CP Дистрибуция»
-Качество: DVDRip (Исходник DVD9 R5)
Контейнер: AVI
Видео: XviD, 720x384 (1.875), 2027 kbps, 25 fps, 0,293 bpp
Аудио: AC3 / 5.1 / 48 kHz / 448 kbps / 16 bit-

Media Info

General
Complete name : G:\Orudie.smerti.2011.P_DVDRip.avi
Format : AVI
Format/Info : Audio Video Interleave
Format profile : OpenDML
File size : 2.19 GiB
Duration : 2h 6mn
Overall bit rate : 2 488 Kbps
Writing application : VirtualDubMod 1.5.10.3 | www.virtualdub-fr.org || (build 2550/release)
Writing library : VirtualDubMod build 2550/release
Video
ID : 0
Format : MPEG-4 Visual
Format profile : Advanced Simple@L5
Format settings, BVOP : 1
Format settings, QPel : No
Format settings, GMC : No warppoints
Format settings, Matrix : Custom
Codec ID : XVID
Codec ID/Hint : XviD
Duration : 2h 6mn
Bit rate : 2 028 Kbps
Width : 720 pixels
Height : 384 pixels
Display aspect ratio : 1.875
Frame rate : 25.000 fps
Color space : YUV
Chroma subsampling : 4:2:0
Bit depth : 8 bits
Scan type : Progressive
Compression mode : Lossy
Bits/(Pixel*Frame) : 0.293
Stream size : 1.79 GiB (82%)
Writing library : XviD 73
Audio
ID : 1
Format : AC-3
Format/Info : Audio Coding 3
Mode extension : CM (complete main)
Codec ID : 2000
Duration : 2h 6mn
Bit rate mode : Constant
Bit rate : 448 Kbps
Channel(s) : 6 channels
Channel positions : Front: L C R, Side: L R, LFE
Sampling rate : 48.0 KHz
Bit depth : 16 bits
Compression mode : Lossy
Stream size : 405 MiB (18%)
Alignment : Split accross interleaves
Interleave, duration : 40 ms (1.00 video frame)
Interleave, preload duration : 500 ms

Скриншот с названием фильма

Скриншоты

Скачать

Скачать торрент! Дети / Орудие смерти / A-i-deul... / Children (Ли Гю Ман / Lee Kyoo Man) [2011, Корея Южная, триллер, криминал, DVDRip] MVO

Как скачивать? · Что такое торрент? · Рейтинг и ограничения

Сайт не распространяет и не хранит электронные версии произведений, а лишь предоставляет доступ к создаваемому пользователями каталогу ссылок на торрент-файлы, которые содержат только списки хеш-сумм

[Профиль] [ЛС]
Показать сообщения:    
Ответить на тему

Текущее время: Сегодня 17:09

Часовой пояс: GMT + 4



Вы не можете начинать темы
Вы не можете отвечать на сообщения
Вы не можете редактировать свои сообщения
Вы не можете удалять свои сообщения
Вы не можете голосовать в опросах
Вы не можете прикреплять файлы к сообщениям
Вы не можете скачивать файлы