Школа монстров: Крик в пятницу вечером / Monster High: Friday Night Frights (Дастин МакКензи / Dustin Mckenzie, Стив Сакс / Steve Sacks) [2011, мультфильм, WEB-DLRip] Dub

Ответить на тему
 
Автор Сообщение

user ®

Стаж: 11 лет

Сообщений: 15145

Пост Пост: #1 от 31-Окт-2013 23:20

[Цитировать]

Школа монстров: Крик в пятницу вечером / Monster High: Friday Night Frights- Страна: США
Жанр: мультфильм
Год выпуска: 2011
Продолжительность: 00:46:22
Перевод: Профессиональный (полное дублирование)
Субтитры: Нет-Режиссер: Дастин МакКензи / Dustin Mckenzie, Стив Сакс / Steve Sacks-Описание: Ребята мечтают принять участие в Чемпионате роллеров Skulltimate Roller Maze, и Френки Штейн убеждает друзей использовать свои "дьявольские силы" для достижения цели.-Рейтинг:
-Релиз: -Семпл-Качество: WEB-DLRip
Формат: AVI
Видео: 720x400 (1.80:1), 23.976 fps, XviD build 65 ~1849 kbps avg, 0.27 bit/pixel
Аудио: 48 kHz, AC3 Dolby Digital, 3/2 (L,C,R,l,r) + LFE ch, ~384 kbps
Субтитры: Отсутствуют

MI

Format : AVIFormat/Info : Audio Video InterleaveFile size : 743 MiBDuration : 46mn 22sOverall bit rate : 2 241 KbpsWriting application : VirtualDubMod 1.5.10.3 | www.virtualdub-fr.org || (build 2550/release)Writing library : VirtualDubMod build 2550/release
VideoID : 0Format : MPEG-4 VisualFormat profile : Advanced Simple@L5Format settings, BVOP : 2Format settings, QPel : NoFormat settings, GMC : No warppointsFormat settings, Matrix : CustomCodec ID : XVIDCodec ID/Hint : XviDDuration : 46mn 22sBit rate : 1 850 KbpsWidth : 720 pixelsHeight : 400 pixelsDisplay aspect ratio : 16:9Frame rate : 23.976 fpsColor space : YUVChroma subsampling : 4:2:0Bit depth : 8 bitsScan type : ProgressiveCompression mode : LossyBits/(Pixel*Frame) : 0.268Stream size : 614 MiB (83%)Writing library : XviD 65
AudioID : 1Format : AC-3Format/Info : Audio Coding 3Mode extension : CM (complete main)Format settings, Endianness : BigCodec ID : 2000Duration : 46mn 2sBit rate mode : ConstantBit rate : 384 KbpsChannel(s) : 6 channelsChannel positions : Front: L C R, Side: L R, LFESampling rate : 48.0 KHzBit depth : 16 bitsCompression mode : LossyStream size : 126 MiB (17%)Alignment : Split accross interleavesInterleave, duration : 42 ms (1.01 video frame)Interleave, preload duration : 500 ms
-
Скачать

Скачать торрент! Школа монстров: Крик в пятницу вечером / Monster High: Friday Night Frights (Дастин МакКензи / Dustin Mckenzie, Стив Сакс / Steve Sacks) [2011, мультфильм, WEB-DLRip] Dub

Как скачивать? · Что такое торрент? · Рейтинг и ограничения

Сайт не распространяет и не хранит электронные версии произведений, а лишь предоставляет доступ к создаваемому пользователями каталогу ссылок на торрент-файлы, которые содержат только списки хеш-сумм

[Профиль] [ЛС]
Показать сообщения:    
Ответить на тему

Текущее время: Сегодня 19:35

Часовой пояс: GMT + 4



Вы не можете начинать темы
Вы не можете отвечать на сообщения
Вы не можете редактировать свои сообщения
Вы не можете удалять свои сообщения
Вы не можете голосовать в опросах
Вы не можете прикреплять файлы к сообщениям
Вы не можете скачивать файлы