Супермен: Брэйниак атакует / Superman: Brainiac Attacks (Курт Геда / Curt Geda) [2006, мультфильм, фантастика, боевик, BDRip] DVO

Ответить на тему
 
Автор Сообщение

user ®

Стаж: 12 лет

Сообщений: 15145

Пост Пост: #1 от 31-Окт-2013 14:45

[Цитировать]

Супермен: Брэйниак атакует / Superman: Brainiac Attacks«Two Enemies Unite To Destroy The Man Of Steel»- Страна: США
Жанр: мультфильм, фантастика, боевик
Год выпуска: 2006
Продолжительность: 01:16:17
Перевод 1: Профессиональный (двухголосый, закадровый) - Супербит
Субтитры: Нет-Режиссер: Курт Геда / Curt Geda-Описание: Озлобленный героическими успехами Cупермена и взлетающей популярностью, Лекс Лютор формирует опасный союз с мощным компьютерным злодеем Брэйниаком. Использование совершенного оружия на основе специальной породы, собранной из глубин космоса, злой гений перепрограммирует Брэйниака, что бы нанести поражение Супермену...-Рейтинг:
-Мировая премьера: 20 июня 2006-Релиз: -Качество: BDRip [SupermanBrainiacAttacks]
Формат: AVI
Видео: 656x368 (1.78:1), 23.976 fps, XviD build 65 ~1227 kbps avg, 0.21 bit/pixel
Аудио 1: 48 kHz, MPEG Layer 3, 2 ch, ~128.00 kbps avg - Супербит
Субтитры: Отсутствуют

MI

Format : AVIFormat/Info : Audio Video InterleaveFile size : 745 MiBDuration : 1h 16mnOverall bit rate : 1 365 KbpsWriting application : VirtualDubMod 1.5.10.3 | www.virtualdub-fr.org || (build 2550/release)Writing library : VirtualDubMod build 2550/release
VideoID : 0Format : MPEG-4 VisualFormat profile : Advanced Simple@L5Format settings, BVOP : 2Format settings, QPel : NoFormat settings, GMC : No warppointsFormat settings, Matrix : CustomCodec ID : XVIDCodec ID/Hint : XviDDuration : 1h 16mnBit rate : 1 228 KbpsWidth : 656 pixelsHeight : 368 pixelsDisplay aspect ratio : 16:9Frame rate : 23.976 fpsColor space : YUVChroma subsampling : 4:2:0Bit depth : 8 bitsScan type : ProgressiveCompression mode : LossyBits/(Pixel*Frame) : 0.212Stream size : 670 MiB (90%)Writing library : XviD 65
AudioID : 1Format : MPEG AudioFormat version : Version 1Format profile : Layer 3Codec ID : 55Codec ID/Hint : MP3Duration : 1h 16mnBit rate mode : ConstantBit rate : 128 KbpsChannel(s) : 2 channelsSampling rate : 48.0 KHzCompression mode : LossyStream size : 69.9 MiB (9%)Alignment : Aligned on interleavesInterleave, duration : 42 ms (1.00 video frame)Interleave, preload duration : 504 msWriting library : LAME3.99rEncoding settings : -m s -V 4 -q 2 -lowpass 17 -b 128
-
Скачать

Скачать торрент! Супермен: Брэйниак атакует / Superman: Brainiac Attacks (Курт Геда / Curt Geda) [2006, мультфильм, фантастика, боевик, BDRip] DVO

Как скачивать? · Что такое торрент? · Рейтинг и ограничения

Сайт не распространяет и не хранит электронные версии произведений, а лишь предоставляет доступ к создаваемому пользователями каталогу ссылок на торрент-файлы, которые содержат только списки хеш-сумм

[Профиль] [ЛС]
Показать сообщения:    
Ответить на тему

Текущее время: Сегодня 20:38

Часовой пояс: GMT + 4



Вы не можете начинать темы
Вы не можете отвечать на сообщения
Вы не можете редактировать свои сообщения
Вы не можете удалять свои сообщения
Вы не можете голосовать в опросах
Вы не можете прикреплять файлы к сообщениям
Вы не можете скачивать файлы