Шепот стен 2 / Помни о смерти / Yeogo goedam II / Whispering Corridors 2: Memento Mori (Ким Тхэ Ён / Tae-Yong Kim, Мин Гю Дон / Kyu-Dong Min) [1999, Южная Корея, Ужасы, драма, мелодрама, DVDRip] Sub Rus

Ответить на тему
 
Автор Сообщение

user ®

Стаж: 11 лет

Сообщений: 15151

Пост Пост: #1 от 31-Окт-2013 01:35

[Цитировать]

Шепот стен 2 / Помни о смерти / Yeogo goedam II / Whispering Corridors 2: Memento Mori
Страна: Южная Корея
Жанр: Ужасы, драма, мелодрама
Год выпуска: 1999
Продолжительность: 01:38:50
Перевод: Субтитры
Cубтитры: русские
Оригинальная аудиодорожка: корейский
Режиссеры: Ким Тхэ Ён / Tae-Yong Kim, Мин Гю Дон / Kyu-Dong Min
В ролях: Мин Сун Ким, Пак Е Чжин, Ли Ён Чжин, Чжон-хак Пэк, Мин Ан, Сюн-Ен Ан, Конг Хё Чжин
Описание: Ученица корейской школы находит дневник, из которого узнаёт о любовных связях своей одноклассницы. После этого она начинает понимать истинные причины самоубийства одной из учащихся.
Доп. информация: Исходник DVD-9 R1 (СПАСИБО! wertrist )
За субтитры СПАСИБО [url=http://***/forum/viewtopic.php?t=1862084]voronx9[/url]
Качество видео: DVDRip
Формат видео: AVI
Видео: XviD build 50, 688x352 (1.95:1), 23.976 fps, 1777 kbps avg
Аудио: Korean AC3 Dolby Digital, 48 kHz, 2/0 (L,R) ch, 192.00 kbps
Формат субтитров: softsub (SRT)

MediaInfo

General
Complete name : D:\Shepot.sten.2.1999.DVDRip-Dego\Shepot.sten.2.1999.DVDRip-Dego.avi
Format : AVI
Format/Info : Audio Video Interleave
File size : 1.37 GiB
Duration : 1h 38mn
Overall bit rate : 1 979 Kbps
Writing application : VirtualDubMod 1.5.10.2 (build 2540/release)
Writing library : VirtualDubMod build 2540/release
Video
ID : 0
Format : MPEG-4 Visual
Format profile : AdvancedSimple@L5
Format settings, BVOP : Yes
Format settings, QPel : No
Format settings, GMC : No warppoints
Format settings, Matrix : Default (MPEG)
Codec ID : XVID
Codec ID/Hint : XviD
Duration : 1h 38mn
Bit rate : 1 778 Kbps
Width : 688 pixels
Height : 352 pixels
Display aspect ratio : 1.955
Frame rate : 23.976 fps
Resolution : 24 bits
Colorimetry : 4:2:0
Scan type : Progressive
Bits/(Pixel*Frame) : 0.306
Stream size : 1.23 GiB (90%)
Writing library : XviD 1.2.1 (UTC 2008-12-04)
Audio
ID : 1
Format : AC-3
Format/Info : Audio Coding 3
Codec ID : 2000
Duration : 1h 38mn
Bit rate mode : Constant
Bit rate : 192 Kbps
Channel(s) : 2 channels
Channel positions : L R
Sampling rate : 48.0 KHz
Stream size : 136 MiB (10%)
Alignment : Split accross interleaves
Interleave, duration : 42 ms (1.00 video frame)
Interleave, preload duration : 500 ms

Скриншоты

Фрагмент субтитров

1
00:00:44,649 --> 00:00:47,324
В первый день умирает девочка...
2
00:00:48,033 --> 00:00:50,421
Ее находят с разбитой головой.
3
00:00:51,211 --> 00:00:53,785
Возможно, она помнила правду.
4
00:00:54,763 --> 00:00:57,812
Во второй день умирает девочка...
5
00:00:57,812 --> 00:01:00,459
Ее находят с переломанными ногами.
6
00:01:00,459 --> 00:01:03,418
Возможно, она ходила возле правды.
7
00:01:06,487 --> 00:01:09,632
На третий день умирает девочка...
8
00:01:09,632 --> 00:01:12,207
Ее находят с отрезанными ушами
9
00:01:12,207 --> 00:01:15,985
Возможно, она слышала правду.
10
00:01:15,985 --> 00:01:19,793
На четвертый день умирает девочка...
11
00:01:19,793 --> 00:01:22,627
Ее находят с выколотыми глазами.
12
00:01:22,627 --> 00:01:26,267
Возможно она видела правду
13
00:01:26,453 --> 00:01:29,461
На пятый день умирает девочка...
14
00:01:29,461 --> 00:01:31,962
Ее находят с вырванным языком.
15
00:01:31,962 --> 00:01:36,942
Возможно, она говорила правду.
16
00:01:38,700 --> 00:01:42,842
На шестой день умирает девочка...
17
00:01:42,842 --> 00:01:44,752
Ее находят с обрубленными руками.
18
00:01:44,752 --> 00:01:47,545
Возможно она написала правду.
19
00:01:47,545 --> 00:01:51,197
На седьмой день девочка собирается умереть.
20
00:01:51,197 --> 00:01:53,045
Возможно...
Скачать

Скачать торрент! Шепот стен 2 / Помни о смерти / Yeogo goedam II / Whispering Corridors 2: Memento Mori (Ким Тхэ Ён / Tae-Yong Kim, Мин Гю Дон / Kyu-Dong Min) [1999, Южная Корея, Ужасы, драма, мелодрама, DVDRip] Sub Rus

Как скачивать? · Что такое торрент? · Рейтинг и ограничения

Сайт не распространяет и не хранит электронные версии произведений, а лишь предоставляет доступ к создаваемому пользователями каталогу ссылок на торрент-файлы, которые содержат только списки хеш-сумм

[Профиль] [ЛС]
Показать сообщения:    
Ответить на тему

Текущее время: Сегодня 06:57

Часовой пояс: GMT + 4



Вы не можете начинать темы
Вы не можете отвечать на сообщения
Вы не можете редактировать свои сообщения
Вы не можете удалять свои сообщения
Вы не можете голосовать в опросах
Вы не можете прикреплять файлы к сообщениям
Вы не можете скачивать файлы