Вечеринка ведьмы / Witch\'s Night Out (Джон Лич / John Leach) [1978, мультипликация, семейный, VHSRip] DVO (Ivnet Cinema) + Rus Sub

Ответить на тему
 
Автор Сообщение

user ®

Стаж: 13 лет

Сообщений: 15041

Пост Пост: #1 от 30-Окт-2013 11:50

[Цитировать]

Вечеринка ведьмы / Witch's Night Out
Страна: Канада
Жанр: мультипликация, семейный
Продолжительность: 00:25:50
Год выпуска: 1978
Перевод: Любительский (двухголосый закадровый) Ivnet Cinema
Русские субтитры: есть (автор перевода Лёша Картошин)
Режиссёр: Джон Лич / John Leach
Роли озвучивали: Гилда Рэднер, Боб Черч, Джон Лич, Наоми Лич, Тони Молсворт, Кэтрин О’Хара, Фиона Рид, Джерри Сальзберг
Описание: В ночь на Хэллоуин маленькие дети ходят по домам и пытаются напугать жителей, но их все узнают, отчего те сильно расстраиваются. Уже ложась спать, дети желают превратиться в монстров, что чуть позже и происходит при участии злой ведьмы (а для кого-то и доброй волшебницы). Однако, шутка выходит из под контроля и на монстров начинается охота.
Доп. информация: Классический спецвыпуск к Хэллоуину, впервые показанный на канале NBC, и транслировавшийся на канале "Disney Channel" каждый год с 1983-го по конец 90-х.
Семпл: http://multi-up.com/918300
Качество: VHSRip
Формат: MKV
Видео: XviD, 640x480, 29.970 fps, 1460 kbps
Аудио 1: MP3, 48000 Hz, 2.0 ch, 128 kbps cbr (RUS, Ivnet Cinema)
Аудио 2: MP3, 48000 Hz, 2.0 ch, 128 kbps cbr (ENG, Original)
Субтитры 1: ASS, RUS, по умолчанию включены (форсированные, слова песни)
Субтитры 2: SRT, RUS, по умолчанию отключены (перевод Лёша Картошин)-Релиз:
Перевод: Лёша Картошин
Роли озвучивали: Анастасия Флигина, Михаил Шорыгин-

Подробные технические данные

General Format : Matroska Format version : Version 4 / Version 2 File size : 325 MiB Duration : 25mn 50s Overall bit rate : 1 760 Kbps Encoded date : UTC 2013-10-29 20:54:19 Writing application : mkvmerge v6.2.0 ('Promised Land') built on Apr 28 2013 12:22:01 Writing library : libebml v1.3.0 + libmatroska v1.4.0 Attachment : Yes Video #1 ID : 1 Format : MPEG-4 Visual Format profile : Advanced Simple@L5 Format settings, BVOP : Yes Format settings, QPel : No Format settings, GMC : No warppoints Format settings, Matrix : Custom Codec ID : XVID Codec ID/Hint : XviD Duration : 25mn 50s Bit rate : 1 469 Kbps Width : 640 pixels Height : 480 pixels Display aspect ratio : 4:3 Frame rate : 29.970 fps Color space : YUV Chroma subsampling : 4:2:0 Bit depth : 8 bits Scan type : Progressive Compression mode : Lossy Bits/(Pixel*Frame) : 0.160 Stream size : 272 MiB (83%) Title : Witch's Night Out Writing library : XviD 1.2.0.dev47 (UTC 2006-11-01) Language : English Default : Yes Forced : No Audio #2 ID : 2 Format : MPEG Audio Format version : Version 1 Format profile : Layer 3 Mode : Joint stereo Mode extension : MS Stereo Codec ID : A_MPEG/L3 Codec ID/Hint : MP3 Duration : 25mn 50s Bit rate mode : Constant Bit rate : 128 Kbps Channel(s) : 2 channels Sampling rate : 48.0 KHz Compression mode : Lossy Stream size : 23.7 MiB (7%) Title : Ivnet Cinema Writing library : LAME3.98r Encoding settings : -m j -V 4 -q 3 -lowpass 18 -b 128 Language : Russian Default : Yes Forced : No Audio #3 ID : 3 Format : MPEG Audio Format version : Version 1 Format profile : Layer 3 Mode : Joint stereo Mode extension : MS Stereo Codec ID : A_MPEG/L3 Codec ID/Hint : MP3 Duration : 25mn 50s Bit rate mode : Constant Bit rate : 128 Kbps Channel(s) : 2 channels Sampling rate : 48.0 KHz Compression mode : Lossy Stream size : 23.7 MiB (7%) Title : Original Writing library : LAME3.98r Encoding settings : -m j -V 4 -q 3 -lowpass 18 -b 128 Language : English Default : No Forced : No Text #4 ID : 4 Format : ASS Codec ID : S_TEXT/ASS Codec ID/Info : Advanced Sub Station Alpha Compression mode : Lossless Title : Lyrics (forced) Language : Russian Default : Yes Forced : Yes Text #5 ID : 5 Format : UTF-8 Codec ID : S_TEXT/UTF8 Codec ID/Info : UTF-8 Plain Text Title : Subtitles (Lesha Kartoshin) Language : Russian Default : No Forced : No

Скриншоты

Скачать

Скачать торрент! Вечеринка ведьмы / Witch\'s Night Out (Джон Лич / John Leach) [1978, мультипликация, семейный, VHSRip] DVO (Ivnet Cinema) + Rus Sub

Как скачивать? · Что такое торрент? · Рейтинг и ограничения

Сайт не распространяет и не хранит электронные версии произведений, а лишь предоставляет доступ к создаваемому пользователями каталогу ссылок на торрент-файлы, которые содержат только списки хеш-сумм

[Профиль] [ЛС]
Показать сообщения:    
Ответить на тему

Текущее время: Сегодня 00:23

Часовой пояс: GMT + 4



Вы не можете начинать темы
Вы не можете отвечать на сообщения
Вы не можете редактировать свои сообщения
Вы не можете удалять свои сообщения
Вы не можете голосовать в опросах
Вы не можете прикреплять файлы к сообщениям
Вы не можете скачивать файлы