Тяп, Ляп — маляры! (Гарри Бардин) [1984 г., Мультфильм, для взрослых, Строительство, дизайн, DVDRip]

Ответить на тему
 
Автор Сообщение

user ®

Стаж: 7 лет 7 месяцев

Сообщений: 20008

Пост Пост: #1 от 29-Окт-2013 22:05

[Цитировать]

Тяп, Ляп — маляры!Страна: СССР
Жанр: Мультфильм, для взрослых, Строительство, дизайн
Продолжительность: ~ 0:09:05
Год выпуска: 1984
Выпущено: «Союзмультфильм»
Режиссёр: Гарри Бардин
Русские субтитры: нетОписание:Это добрая смешная история о двух пластилиновых человечках, занятых очень важным делом: Тяп и Ляп красят заводской забор. Рутинная работа превращается для наших маляров в настоящее приключение, что ещё раз доказывает: главное – нестандартный подход во всём. Правда, и чуточку ответственности не помешает.Награды• Диплом МКФ в Оденсе (Дания), 1985 г.

Режиссёр и команда

Режиссёр Гарри Бардин
сценарист Гарри Бардин
художник-постановщик Ирина Ленникова
аниматоры: Михаил Письман, Елена Гагарина, Наталья Тимофеева (Федосова), Ирина Собинова-Кассиль
оператор Сергей Хлебников
директор Белла Ходова
композитор Нина Савичева
звукорежиссёр Владимир Кутузов
редактор Татьяна Папорова
куклы и декорации: Александр Горбачев, Сергей Попов, Семён Этлис, А. Уткин, Наталия Гринберг, Михаил Колтунов, Владимир Маслов, Александр Максимов, Александр Беляев, Виктор Гришин
скульптор: М. Митлянский
монтажёр Надежда Трещёва
Качество: DVDRip
Формат: AVI
Видео: 720x544 (1.32:1), 25 fps, XviD build 64 ~2398 kbps avg, 0.25 bit/pixel
Аудио: 48 kHz, AC3 Dolby Digital, 2/0 (L,R) ch, ~192 kbps
Субтитры: отсутствуют

Подробные технические данные

ОбщееПолное имя : D:\Мульты\Tyap,_Lyap_-_malyary!.aviФормат : AVIФормат/Информация : Audio Video InterleaveРазмер файла : 169 МбайтПродолжительность : 9 м. 4 с.Общий поток : 2600 Кбит/секПрограмма кодирования : VirtualDubMod 1.5.10.2 (build 2540/release)Библиотека кодирования : VirtualDubMod build 2540/release
ВидеоИдентификатор : 0Формат : MPEG-4 VisualПрофиль формата : Advanced Simple@L5Параметр BVOP формата : 2Параметр QPel формата : НетПараметр GMC формата : Без точки переходаПараметр матрицы формата : ВыборочнаяИдентификатор кодека : XVIDИдентификатор кодека/Подсказка : XviDПродолжительность : 9 м. 4 с.Битрейт : 2398 Кбит/секШирина : 720 пикселейВысота : 544 пикселяСоотношение сторон : 4:3Частота кадров : 25,000 кадров/секЦветовое пространство : YUVСубдискретизация насыщенности : 4:2:0Битовая глубина : 8 битТип развёртки : ПрогрессивнаяМетод сжатия : С потерямиБит/(Пиксели*Кадры) : 0.245Размер потока : 156 Мбайт (92%)Библиотека кодирования : XviD 64
АудиоИдентификатор : 1Формат : AC-3Формат/Информация : Audio Coding 3Расширение режима : CM (complete main)Идентификатор кодека : 2000Продолжительность : 9 м. 4 с.Вид битрейта : ПостоянныйБитрейт : 192 Кбит/секКаналы : 2 каналаРасположение каналов : Front: L RЧастота : 48,0 КГцБитовая глубина : 16 битМетод сжатия : С потерямиРазмер потока : 12,5 Мбайт (7%)Выравнивание : Разделение по промежуткамПродолжительность промежутка : 40 мс. (1,00 видеокадр)Время предзагрузки промежутка : 500 мс.
Subtitles: Not Present

Скриншоты

Скачать

Скачать торрент!

Как скачивать? · Что такое торрент? · Рейтинг и ограничения

Сайт не распространяет и не хранит электронные версии произведений, а лишь предоставляет доступ к создаваемому пользователями каталогу ссылок на торрент-файлы, которые содержат только списки хеш-сумм

[Профиль] [ЛС]
Показать сообщения:    
Ответить на тему

Текущее время: Сегодня 03:49

Часовой пояс: GMT + 4



Вы не можете начинать темы
Вы не можете отвечать на сообщения
Вы не можете редактировать свои сообщения
Вы не можете удалять свои сообщения
Вы не можете голосовать в опросах
Вы не можете прикреплять файлы к сообщениям
Вы не можете скачивать файлы