Солдат Джейн / G.I. Jane (Ридли Скотт / Ridley Scott) [1997, США, Боевик, Драма, BDRip 720p] 2х MVO (West Multimedia, Paradis Digital) + 2х AVO (Гаврилов, Живов) + Sub Rus, Eng + Original Eng + Ukr

Ответить на тему
 
Автор Сообщение

user ®

Стаж: 7 лет 7 месяцев

Сообщений: 20008

Пост Пост: #1 от 28-Окт-2013 23:00

[Цитировать]

Солдат Джейн / G.I. Jane
Страна: США
Студия: Hollywood Pictures
Жанр: Боевик, Драма
Год выпуска: 1997
Продолжительность: 2:05:14
Перевод 1: Профессиональный (многоголосый закадровый) West Multimedia
Перевод 2: Профессиональный (многоголосый закадровый) Paradis Digital
Перевод 3: Авторский (одноголосый закадровый) А.Гаврилов
Перевод 4: Авторский (одноголосый закадровый) Ю.Живов
Cубтитры: русские, english
Оригинальная аудиодорожка: английский
Режиссер: Ридли Скотт/Ridley Scott
В ролях: Деми Мур, Вигго Мортенсен, Энн Бэнкрофт, Джейсон Бех, Дэниэл Фон Бэрген, Джон Майкл Хиггинс, Кевин Гейдж, Дэвид Варшовский, Дэвид Вадим, Моррис Честнат
Описание: Лейтенант Джордан О`Нил становится первой женщиной, направленной для прохождения элитной программы в центре подготовки «Каталано» во Флориде.
Лучшие представители спецподразделений армии США отбираются сюда. 60 процентов из них не выдерживают в этом аду. Школа выживания и уничтожения… Ты должна выстоять, О`Нил!
Тип релиза: BDRip 720p
Контейнер: MKV
Видео: 1280x546; 23.976 fps; 5168 Kbps
Аудио 1: Русский AC3 5.1, 448 Kbps, 48 KHz (Профессиональный многоголосый закадровый West Multimedia)
Аудио 2: Русский AC3 5.1, 448 Kbps, 48 KHz (Профессиональный многоголосый закадровый Paradis Digital)
Аудио 3: Русский AC3 5.1, 640 Kbps, 48 KHz (Авторский одноголосый закадровый А.Гаврилов)
Аудио 3: Русский AC3 5.1, 640 Kbps, 48 KHz (Авторский одноголосый закадровый Ю.Живов)
Аудио 4: Украинский AC3 2.0 192 Kbps, 48 KHz (Профессиональный многоголосый закадровый)
Аудио 5: English DTS 5.1, 1536 Kbps, 48 KHz (Оригинал)
Все дорожки с украинских трекеров, авторов не помню , но спасибо им. Ю.Живов был в DTS 1536 Kbps, но раздувать файл не стал, кому надо могу залить отдельно в переводы. Так же есть дорожка с трансляции Россия 2. Кто давал на синхронизацию не помню уже, как то не срослось с ней, не до этого было - забросил короче. Автору спасибо за неё и огромные извинения за то что продинамил. Она представляет собой тот же самый перевод Paradis Digital, но с одной интересной особенностью - наложение перевода идет немного позже, лично мне это понравилось больше. Дорожка AC3 2.0 192 Kbps, тоже могу залить отдельно в переводы.

MediaInfo

Complete name : Солдат Джейн BDRip 720p.mkv
Format : Matroska
Format version : Version 2
File size : 7.91 GiB
Duration : 2h 5mn
Overall bit rate : 9 047 Kbps
Encoded date : UTC 2013-10-25 18:47:32
Writing application : mkvmerge v5.0.1 ('Es ist Sommer') built on Oct 9 2011 11:55:43
Writing library : libebml v1.2.2 + libmatroska v1.3.0
Video
ID : 1
Format : AVC
Format/Info : Advanced Video Codec
Format profile : High@L4.1
Format settings, CABAC : Yes
Format settings, ReFrames : 11 frames
Codec ID : V_MPEG4/ISO/AVC
Duration : 2h 5mn
Bit rate : 5 168 Kbps
Width : 1 280 pixels
Height : 546 pixels
Display aspect ratio : 2.35:1
Frame rate mode : Constant
Frame rate : 23.976 fps
Color space : YUV
Chroma subsampling : 4:2:0
Bit depth : 8 bits
Scan type : Progressive
Bits/(Pixel*Frame) : 0.308
Stream size : 4.36 GiB (55%)
Writing library : x264 core 138 r2358 9e941d1
Encoding settings : cabac=1 / ref=11 / deblock=1:-3:-3 / analyse=0x3:0x133 / me=umh / subme=11 / psy=1 / psy_rd=1.00:0.00 / mixed_ref=1 / me_range=48 / chroma_me=1 / trellis=2 / 8x8dct=1 / cqm=0 / deadzone=21,11 / fast_pskip=0 / chroma_qp_offset=-2 / threads=6 / lookahead_threads=1 / sliced_threads=0 / nr=0 / decimate=0 / interlaced=0 / bluray_compat=0 / constrained_intra=0 / bframes=8 / b_pyramid=2 / b_adapt=2 / b_bias=0 / direct=3 / weightb=1 / open_gop=0 / weightp=2 / keyint=240 / keyint_min=22 / scenecut=40 / intra_refresh=0 / rc_lookahead=40 / rc=2pass / mbtree=0 / bitrate=5168 / ratetol=1.0 / qcomp=0.80 / qpmin=0 / qpmax=69 / qpstep=4 / cplxblur=20.0 / qblur=0.5 / vbv_maxrate=50000 / vbv_bufsize=40000 / nal_hrd=none / ip_ratio=1.30 / pb_ratio=1.30 / aq=1:0.80
Language : English
Default : Yes
Forced : No
Audio #1
ID : 2
Format : AC-3
Format/Info : Audio Coding 3
Mode extension : CM (complete main)
Format settings, Endianness : Big
Codec ID : A_AC3
Duration : 2h 5mn
Bit rate mode : Constant
Bit rate : 448 Kbps
Channel(s) : 6 channels
Channel positions : Front: L C R, Side: L R, LFE
Sampling rate : 48.0 KHz
Bit depth : 16 bits
Compression mode : Lossy
Stream size : 401 MiB (5%)
Title : Многоголосый West Multimedia R5
Language : Russian
Default : Yes
Forced : No
Audio #2
ID : 3
Format : AC-3
Format/Info : Audio Coding 3
Mode extension : CM (complete main)
Format settings, Endianness : Big
Codec ID : A_AC3
Duration : 2h 5mn
Bit rate mode : Constant
Bit rate : 448 Kbps
Channel(s) : 6 channels
Channel positions : Front: L C R, Side: L R, LFE
Sampling rate : 48.0 KHz
Bit depth : 16 bits
Compression mode : Lossy
Stream size : 401 MiB (5%)
Title : Многоголосый Paradis Digital R5
Language : Russian
Default : No
Forced : No
Audio #3
ID : 4
Format : AC-3
Format/Info : Audio Coding 3
Mode extension : CM (complete main)
Format settings, Endianness : Big
Codec ID : A_AC3
Duration : 2h 5mn
Bit rate mode : Constant
Bit rate : 640 Kbps
Channel(s) : 6 channels
Channel positions : Front: L C R, Side: L R, LFE
Sampling rate : 48.0 KHz
Bit depth : 16 bits
Compression mode : Lossy
Stream size : 573 MiB (7%)
Title : Авторский А.Гаврилов
Language : Russian
Default : No
Forced : No
Audio #4
ID : 5
Format : AC-3
Format/Info : Audio Coding 3
Mode extension : CM (complete main)
Format settings, Endianness : Big
Codec ID : A_AC3
Duration : 2h 5mn
Bit rate mode : Constant
Bit rate : 640 Kbps
Channel(s) : 6 channels
Channel positions : Front: L C R, Side: L R, LFE
Sampling rate : 48.0 KHz
Bit depth : 16 bits
Compression mode : Lossy
Stream size : 573 MiB (7%)
Title : Авторский Ю.Живов
Language : Russian
Default : No
Forced : No
Audio #5
ID : 6
Format : AC-3
Format/Info : Audio Coding 3
Mode extension : CM (complete main)
Format settings, Endianness : Big
Codec ID : A_AC3
Duration : 2h 5mn
Bit rate mode : Constant
Bit rate : 192 Kbps
Channel(s) : 2 channels
Channel positions : Front: L R
Sampling rate : 48.0 KHz
Bit depth : 16 bits
Compression mode : Lossy
Stream size : 172 MiB (2%)
Title : Многоголосый
Language : Ukrainian
Default : No
Forced : No
Audio #6
ID : 7
Format : DTS
Format/Info : Digital Theater Systems
Mode : 16
Format settings, Endianness : Big
Codec ID : A_DTS
Duration : 2h 5mn
Bit rate mode : Constant
Bit rate : 1 510 Kbps
Channel(s) : 6 channels
Channel positions : Front: L C R, Side: L R, LFE
Sampling rate : 48.0 KHz
Bit depth : 24 bits
Compression mode : Lossy
Stream size : 1.32 GiB (17%)
Title : Оригинал
Language : English
Default : No
Forced : No
Text #1
ID : 8
Format : UTF-8
Codec ID : S_TEXT/UTF8
Codec ID/Info : UTF-8 Plain Text
Language : Russian
Default : Yes
Forced : No
Text #2
ID : 9
Format : UTF-8
Codec ID : S_TEXT/UTF8
Codec ID/Info : UTF-8 Plain Text
Language : English
Default : No
Forced : No
Menu
00:00:00.000 : en:Program Start
00:00:27.194 : en:Opening Credits
00:09:36.951 : en:Career Opportunity
00:14:00.882 : en:Catalano Naval Base
00:19:10.816 : en:Training Begins
00:31:52.452 : en:Favorable Conditions
00:34:55.176 : en:Next Evolution
00:39:41.462 : en:Winners And Losers
00:43:24.268 : en:The Double Standard
00:46:11.519 : en:Military Cut
00:48:10.221 : en:Friction in Barracks
00:54:00.737 : en:Toughening Up
01:01:13.503 : en:Only Bad Leaders
01:05:39.519 : en:In Charge
01:15:26.605 : en:No Special Treatment
01:22:09.925 : en:Horse Trading
01:23:49.358 : en:Drink With The Crew
01:27:36.168 : en:Conduct Unbecoming
01:33:39.572 : en:Brinkmanship
01:39:17.702 : en:Round Two
01:44:28.429 : en:Interference
01:52:05.093 : en:Under Fire
01:58:09.207 : en:End Credits

x264log

avs [info]: 1280x546p 1:1 @ 24000/1001 fps (cfr)
x264 [info]: frame I:1437 Avg QP:13.05 size: 87766
x264 [info]: frame P:43040 Avg QP:15.03 size: 44712
x264 [info]: frame B:135689 Avg QP:16.86 size: 20647
encoded 180166 frames, 2.88 fps, 5165.67 kb/s

Сравнение

--------------Source------------vs ------------GansAn-----------vs ------------XSHD (PGor)



Скриншоты


Скачать

Скачать торрент!

Как скачивать? · Что такое торрент? · Рейтинг и ограничения

Сайт не распространяет и не хранит электронные версии произведений, а лишь предоставляет доступ к создаваемому пользователями каталогу ссылок на торрент-файлы, которые содержат только списки хеш-сумм

[Профиль] [ЛС]
Показать сообщения:    
Ответить на тему

Текущее время: Сегодня 18:39

Часовой пояс: GMT + 4



Вы не можете начинать темы
Вы не можете отвечать на сообщения
Вы не можете редактировать свои сообщения
Вы не можете удалять свои сообщения
Вы не можете голосовать в опросах
Вы не можете прикреплять файлы к сообщениям
Вы не можете скачивать файлы