Турбо / Turbo (Дэвид Сорен / David Soren) [2013, Мультфильм, Комедия, Приключения, Семейный, Спорт, BDRip] Dub + Dub(Ukr) + Eng + Sub (Rus, Ukr, Eng)

Ответить на тему
 
Автор Сообщение

user ®

Стаж: 13 лет

Сообщений: 15041

Пост Пост: #1 от 28-Окт-2013 11:30

[Цитировать]

Турбо / Turbo -Страна: США, DreamWorks Animation
Жанр: Мультфильм, Комедия, Приключения, Семейный, Спорт
Год выпуска: 2013
Продолжительность: 01:35:40-Перевод: Профессиональный (дублированный) BD EUR
Перевод 2: Профессиональный (дублированный) Украинский
Cубтитры: Русские, Украинские, Английские
Оригинальная аудиодорожка: Английский-Режиссер: Дэвид Сорен / David Soren-Роли озвучили: Райан Рейнольдс /Ryan Reynolds/, Пол Джаматти /Paul Giamatti/, Снуп Догг /Snoop Dogg/, Майя Рудольф /Maya Rudolph/, Мишель Родригес /Michelle Rodriguez/, Сэмюэл Л. Джексон /Samuel L. Jackson/, Луис Гусман /Luis Guzman/, Билл Хейдер /Bill Hader/, Бен Шварц /Ben Schwartz/, Майкл Пенья /Michael Pena/-Описание: Ничто так не раздражает темпераментную, мечтающую о скорости улитку с говорящим именем Турбо, как неспешная жизнь, медленные разговоры, заторможенные соседи. Пусть наш герой выглядит большим чудаком в этом вялом, неторопливом мире, пусть он идёт вопреки закону природы о «рождённом ползать», но если в сердце горит «пламенный мотор», а душа верит в чудо, оно просто не имеет права не произойти!-Доп. информация:
Релиз : Автор рипа: MECHANICAL ENGINEER
-Качество видео: BDRip (BluRay.AVC.DTS-HD.MA.7.1-PublicHD)
Формат видео: AVI
Видео: 720x304 (2.37:1), 23.976 fps, XviD build 65 ~1722 kbps avg, 0.33 bit/pixel
Аудио: 48 kHz, AC3 Dolby Digital, 3/2 (L,C,R,l,r) + LFE ch, ~448.00 kbps avg
Аудио 2: 48 kHz, AC3 Dolby Digital, 3/2 (L,C,R,l,r) + LFE ch, ~448.00 kbps avg Украинский дублированный (Отдельно)
Аудио 3: 48 kHz, AC3 Dolby Digital, 3/2 (L,C,R,l,r) + LFE ch, ~448.00 kbps avg Английская (Отдельно)
Формат субтитров: softsub (SRT), Русские, Украинские, Английские (Отдельно)

MediaInfo

Format                           : AVI
Format/Info                      : Audio Video Interleave
File size                        : 1.46 GiB
Duration                         : 1h 35mn
Overall bit rate                 : 2 180 Kbps
Movie name                       : Турбо / Turbo (2013)
Director                         : MECHANICAL ENGINEER (Blu-Ray)
Writing application              : VirtualDubMod 1.5.10.3 | www.virtualdub-fr.org || (build 2550/release)
Copyright                        : HQ-ViDEO
Comment                          : 28.10.2013
Video
ID                               : 0
Format                           : MPEG-4 Visual
Format profile                   : Advanced Simple@L5
Format settings, BVOP            : Yes
Format settings, QPel            : No
Format settings, GMC             : No warppoints
Format settings, Matrix          : Custom
Codec ID                         : XVID
Codec ID/Hint                    : XviD
Duration                         : 1h 35mn
Bit rate                         : 1 723 Kbps
Width                            : 720 pixels
Height                           : 304 pixels
Display aspect ratio             : 2.35:1
Frame rate                       : 23.976 fps
Color space                      : YUV
Chroma subsampling               : 4:2:0
Bit depth                        : 8 bits
Scan type                        : Progressive
Bits/(Pixel*Frame)               : 0.328
Stream size                      : 1.15 GiB (79%)
Writing library                  : XviD 65
Audio
ID                               : 1
Format                           : AC-3
Format/Info                      : Audio Coding 3
Mode extension                   : CM (complete main)
Codec ID                         : 2000
Duration                         : 1h 35mn
Bit rate mode                    : Constant
Bit rate                         : 448 Kbps
Channel(s)                       : 6 channels
Channel positions                : Front: L C R, Side: L R, LFE
Sampling rate                    : 48.0 KHz
Bit depth                        : 16 bits
Stream size                      : 307 MiB (21%)
Alignment                        : Split accross interleaves
Interleave, duration             : 42 ms (1.00 video frame)
Interleave, preload duration     : 500 ms

Скриншоты


Примечание

В титрах попадает плавающий кроп, не стал убирать, т.к. не мешает просмотру.
ПРИЯТНОГО ПРОСМОТРА!
Скачать

Скачать торрент! Турбо / Turbo (Дэвид Сорен / David Soren) [2013, Мультфильм, Комедия, Приключения, Семейный, Спорт, BDRip] Dub + Dub(Ukr) + Eng + Sub (Rus, Ukr, Eng)

Как скачивать? · Что такое торрент? · Рейтинг и ограничения

Сайт не распространяет и не хранит электронные версии произведений, а лишь предоставляет доступ к создаваемому пользователями каталогу ссылок на торрент-файлы, которые содержат только списки хеш-сумм

[Профиль] [ЛС]
Показать сообщения:    
Ответить на тему

Текущее время: Сегодня 03:33

Часовой пояс: GMT + 4



Вы не можете начинать темы
Вы не можете отвечать на сообщения
Вы не можете редактировать свои сообщения
Вы не можете удалять свои сообщения
Вы не можете голосовать в опросах
Вы не можете прикреплять файлы к сообщениям
Вы не можете скачивать файлы