Перед полуночью / Before Midnight (Ричард Линклейтер / Richard Linklater) [2013, США, драма, мелодрама, BDRip 720p] 3xSub (Rus, Eng) + Original Eng + Commentary Eng

Ответить на тему
 
Автор Сообщение

user ®

Стаж: 7 лет 7 месяцев

Сообщений: 20008

Пост Пост: #1 от 27-Окт-2013 19:00

[Цитировать]

Перед полуночью / Before Midnight
Страна: США
Жанр: драма, мелодрама
Год выпуска: 2013
Продолжительность: 01:48:54
Перевод: Субтитры
Cубтитры: русские Евгений Кудашев, английские [Full, SDH/COLOR]
Оригинальная аудиодорожка: английский
-
Режиссер: Ричард Линклейтер / Richard Linklater
В ролях: Итан Хоук, Жюли Дельпи, Шеймас Дэви-Фицпатрик, Дженнифер Прайор, Шарлотта Прайор, Ксения Калогеропулу, Уолтер Лассали, Ариана Лабед, Яннис Пападопулос, Афина Рахель Цангари
-
Описание: Мы встречаем Джесси и Селин еще через 9 лет в Греции. Почти два десятилетия прошло с их первой встречи в поезде, направляющемся в Вену.

Тип релиза: BDRip 720p
Контейнер: MKV
Видео: H264 / NTSC 16:9 / 1280x692 (1,85:1) / 7741 kbps / 23,976 fps / 0.364 bit/pixel / High@L4.1
Аудио 1: English / DTS / 48 kHz / 5.1 Ch / 1510 kbps / 24 bit / Original
Аудио 2: English / AC3 / 48 kHz / 2 Ch / 192 kbps / 16 bit / Commentary
Формат субтитров: softsub (SRT)
Навигация по главам: есть

Фрагмент субтитров

583
00:38:10,727 --> 00:38:13,894
Ну, ну мне нравятся истории,
в которых есть смысл.
584
00:38:14,034 --> 00:38:15,837
Ну вот как очень красивая история о любви.
585
00:38:15,838 --> 00:38:17,140
Ну да, конечно.
586
00:38:17,141 --> 00:38:22,141
Знаешь, я вот как-то читала книгу... Ромео и...
— Джульетта.
587
00:38:24,121 --> 00:38:25,590
Да!
588
00:38:25,591 --> 00:38:28,758
Вау! Ты её знаешь?
— Да, это отличная книга. Кстати это пьеса, на самом деле.
589
00:38:28,764 --> 00:38:30,187
Не книга, а пьеса.
590
00:38:30,188 --> 00:38:33,036
А я думала, это книга,
написанная по фильму.
591
00:38:33,908 --> 00:38:37,041
Нет, нет,
— А-а, то есть это пьеса, вау!
592
00:38:37,883 --> 00:38:43,859
Ой, ну я на самом деле не целиком её прочитала, мне же
нужно быть в курсе всего, читать журналы,
593
00:38:43,860 --> 00:38:46,331
Знать всё о жизни всех этих людей.
594
00:38:46,332 --> 00:38:50,640
Да, я понимаю, это важно.
— Ой, ты очень, очень умный.
595
00:38:50,641 --> 00:38:54,037
И я уверена, у тебя огромный член.
596
00:38:54,817 --> 00:38:59,558
Почему меня так привлекает эта женщина?!
597
00:38:59,559 --> 00:39:04,401
И вот это смешная часть.

MediaInfo

Общее
Уникальный идентификатор : 235690686168996893359724110390119133939 (0xB1506000B1EA42018F015293AA9472F3)
Полное имя : W:\BDRip 720p\Before Midnight.2013.BDRip.720p.mkv
Формат : Matroska
Версия формата : Version 4 / Version 2
Размер файла : 7,33 Гбайт
Продолжительность : 1 ч. 48 м.
Общий поток : 9633 Кбит/сек
Дата кодирования : UTC 2013-10-26 15:06:23
Программа кодирования : mkvmerge v6.5.0 ('Isn't she lovely') built on Oct 20 2013 12:50:05
Библиотека кодирования : libebml v1.3.0 + libmatroska v1.4.1
Видео
Идентификатор : 1
Формат : AVC
Формат/Информация : Advanced Video Codec
Профиль формата : High@L4.1
Параметр CABAC формата : Да
Параметр ReFrames формата : 9 кадров
Идентификатор кодека : V_MPEG4/ISO/AVC
Продолжительность : 1 ч. 48 м.
Битрейт : 7741 Кбит/сек
Ширина : 1280 пикселей
Высота : 692 пикселя
Соотношение сторон : 1,85:1
Режим частоты кадров : Постоянный
Частота кадров : 23,976 кадра/сек
Цветовое пространство : YUV
Субдискретизация насыщенности : 4:2:0
Битовая глубина : 8 бит
Тип развёртки : Прогрессивная
Бит/(Пиксели*Кадры) : 0.364
Размер потока : 5,89 Гбайт (80%)
Библиотека кодирования : x264 core 133 r2334 a3ac64b
Настройки программы : cabac=1 / ref=9 / deblock=1:-3:-3 / analyse=0x3:0x133 / me=tesa / subme=10 / psy=1 / psy_rd=1.05:0.00 / mixed_ref=1 / me_range=16 / chroma_me=1 / trellis=2 / 8x8dct=1 / cqm=0 / deadzone=21,11 / fast_pskip=0 / chroma_qp_offset=-2 / threads=12 / lookahead_threads=2 / sliced_threads=0 / nr=0 / decimate=0 / interlaced=0 / bluray_compat=0 / constrained_intra=0 / bframes=8 / b_pyramid=2 / b_adapt=2 / b_bias=0 / direct=3 / weightb=1 / open_gop=0 / weightp=2 / keyint=250 / keyint_min=23 / scenecut=40 / intra_refresh=0 / rc_lookahead=60 / rc=crf / mbtree=0 / crf=16.5 / qcomp=0.65 / qpmin=0 / qpmax=69 / qpstep=4 / vbv_maxrate=50000 / vbv_bufsize=62500 / crf_max=0.0 / nal_hrd=none / ip_ratio=1.20 / pb_ratio=1.10 / aq=1:0.60
Язык : English
Default : Да
Forced : Нет
Коэффициенты матрицы : BT.709
Аудио #1
Идентификатор : 2
Формат : DTS
Формат/Информация : Digital Theater Systems
Режим : 16
Параметр Endianness формата : Big
Идентификатор кодека : A_DTS
Продолжительность : 1 ч. 48 м.
Вид битрейта : Постоянный
Битрейт : 1509 Кбит/сек
Каналы : 6 каналов
Расположение каналов : Front: L C R, Side: L R, LFE
Частота : 48,0 КГц
Битовая глубина : 24 бит
Метод сжатия : С потерями
Размер потока : 1,15 Гбайт (16%)
Заголовок : Original
Язык : English
Default : Да
Forced : Нет
Аудио #2
Идентификатор : 3
Формат : AC-3
Формат/Информация : Audio Coding 3
Профиль формата : Dolby Digital
Расширение режима : CM (complete main)
Параметр Endianness формата : Big
Идентификатор кодека : A_AC3
Продолжительность : 1 ч. 48 м.
Вид битрейта : Постоянный
Битрейт : 192 Кбит/сек
Каналы : 2 канала
Расположение каналов : Front: L R
Частота : 48,0 КГц
Битовая глубина : 16 бит
Метод сжатия : С потерями
Размер потока : 150 Мбайт (2%)
Заголовок : Commentary with Ethan Hawke, Julie Delpy & Richard Linklater
Язык : English
Default : Нет
Forced : Нет
Текст #1
Идентификатор : 4
Формат : UTF-8
Идентификатор кодека : S_TEXT/UTF8
Идентификатор кодека/Информация : UTF-8 Plain Text
Заголовок : Евгений Кудашев
Язык : Russian
Default : Да
Forced : Нет
Текст #2
Идентификатор : 5
Формат : UTF-8
Идентификатор кодека : S_TEXT/UTF8
Идентификатор кодека/Информация : UTF-8 Plain Text
Заголовок : Original
Язык : English
Default : Нет
Forced : Нет
Текст #3
Идентификатор : 6
Формат : UTF-8
Идентификатор кодека : S_TEXT/UTF8
Идентификатор кодека/Информация : UTF-8 Plain Text
Заголовок : Original [SDH]
Язык : English
Default : Нет
Forced : Нет
Меню
00:00:00.000 : en:00:00:00.000
00:06:20.046 : en:00:06:20.046
00:19:32.588 : en:00:19:32.588
00:21:44.345 : en:00:21:44.345
00:27:28.814 : en:00:27:28.814
00:29:36.692 : en:00:29:36.692
00:37:08.643 : en:00:37:08.643
00:46:51.142 : en:00:46:51.142
00:59:11.590 : en:00:59:11.590
01:01:09.708 : en:01:01:09.708
01:04:42.796 : en:01:04:42.796
01:06:13.219 : en:01:06:13.219
01:09:44.931 : en:01:09:44.931
01:19:05.532 : en:01:19:05.532
01:26:59.548 : en:01:26:59.548
01:35:58.127 : en:01:35:58.127

Скриншоты

Скачать

Скачать торрент!

Как скачивать? · Что такое торрент? · Рейтинг и ограничения

Сайт не распространяет и не хранит электронные версии произведений, а лишь предоставляет доступ к создаваемому пользователями каталогу ссылок на торрент-файлы, которые содержат только списки хеш-сумм

[Профиль] [ЛС]
Показать сообщения:    
Ответить на тему

Текущее время: Сегодня 22:41

Часовой пояс: GMT + 4



Вы не можете начинать темы
Вы не можете отвечать на сообщения
Вы не можете редактировать свои сообщения
Вы не можете удалять свои сообщения
Вы не можете голосовать в опросах
Вы не можете прикреплять файлы к сообщениям
Вы не можете скачивать файлы