Хризантемы (Пётр Чардынин) [1914, драма, TVRip]

Ответить на тему
 
Автор Сообщение

user ®

Стаж: 7 лет 7 месяцев

Сообщений: 20008

Пост Пост: #1 от 27-Окт-2013 11:15

[Цитировать]

Хризантемы
Жанр: драма
Год выпуска: 1914
Продолжительность: 0:29:36
Режиссёр: Пётр Чардынин
В ролях: Вера Каралли, Иван Мозжухин, Софья Гославская, Александр Херувимов.
Описание: Балерина Вера Неволина влюблена в Владимира, у которого много долгов и постоянно появляются все новые и новые. Вера предлагает Владимиру свои драгоценности чтоб рассчитаться с долгами. Но тут внимание Владимира привлекает молодая и богатая вдова, наследница отцовских миллионов, он видит в свадьбе с ней единственный способ поправить свои дела и обустроить свою дальнейшую жизнь. Он начинает усиленно ухаживать за вдовой. Вера не может свыкнуться с мыслью об утрате любимого человека, она идет в дом вдовы, и там находит любимого, но Владимир не признает Веру. Не в силах вынести предательство любимого человека, во время очередного спектакля Вера принимает яд и, согласно либретто, прощается с миром навсегда…
Качество видео: TVRip
Формат видео: AVI
Видео: 466x360 (1.29:1), 30 fps, Microsoft MPEG-4 Video Codec V2 ~1601 kbps avg, 0.32 bit/pixel
Аудио: 44.100 kHz, MPEG Layer 3, 2 ch, ~64.00 kbps avg

MediaInfo

General
Complete name : C:\videooutput\Хризантемы. 1914 год..avi
Format : AVI
Format/Info : Audio Video Interleave
File size : 355 MiB
Duration : 29mn 36s
Overall bit rate : 1 679 Kbps
Writing application : Lavf52.31.0
Video
ID : 0
Format : MPEG-4 Visual
Codec ID : MP42
Codec ID/Info : Microsoft MPEG-4 v2 (pre-standard)
Codec ID/Hint : Microsoft
Duration : 29mn 36s
Bit rate : 1 601 Kbps
Width : 466 pixels
Height : 360 pixels
Display aspect ratio : 1.294
Frame rate : 30.000 fps
Compression mode : Lossy
Bits/(Pixel*Frame) : 0.318
Stream size : 339 MiB (95%)
Audio
ID : 1
Format : MPEG Audio
Format version : Version 1
Format profile : Layer 3
Mode : Joint stereo
Mode extension : MS Stereo
Codec ID : 55
Codec ID/Hint : MP3
Duration : 29mn 36s
Bit rate mode : Constant
Bit rate : 64.0 Kbps
Channel(s) : 2 channels
Sampling rate : 44.1 KHz
Compression mode : Lossy
Stream size : 13.6 MiB (4%)
Alignment : Aligned on interleaves
Interleave, duration : 26 ms (0.78 video frame)

Скриншоты

Скачать

Скачать торрент!

Как скачивать? · Что такое торрент? · Рейтинг и ограничения

Сайт не распространяет и не хранит электронные версии произведений, а лишь предоставляет доступ к создаваемому пользователями каталогу ссылок на торрент-файлы, которые содержат только списки хеш-сумм

[Профиль] [ЛС]
Показать сообщения:    
Ответить на тему

Текущее время: Сегодня 02:22

Часовой пояс: GMT + 4



Вы не можете начинать темы
Вы не можете отвечать на сообщения
Вы не можете редактировать свои сообщения
Вы не можете удалять свои сообщения
Вы не можете голосовать в опросах
Вы не можете прикреплять файлы к сообщениям
Вы не можете скачивать файлы