Ип Ман: Последняя схватка / Ip Man: The Final Fight / Yip Man: Jung gik yat jin (Херман Яу / Herman Yau) [2013, Гонконг, боевик, драма, биография, HDRip] DVO

Ответить на тему
 
Автор Сообщение

user ®

Стаж: 11 лет

Сообщений: 15151

Пост Пост: #1 от 24-Окт-2013 10:00

[Цитировать]

Ип Ман: Последняя схватка / Ip Man: The Final Fight
Страна: Гонконг
Жанр: боевик, драма, биография
Год выпуска: 2013
Продолжительность: 01:40:13
Перевод: Любительский (двухголосый закадровый)
Cубтитры: нет
Оригинальная аудиодорожка: нет
Режиссер: Херман Яу / Herman Yau
В ролях: Энтони Вонг Чау-Санг, Гиллиан Чун, Джордан Чан, Эрик Цан, Марвел Чоу, Чжоу Чучу, Тимми Хунг, Цзянь Луи Ксиа, Синь Синь Сюн, Ип Чун
Описание: В послевоенном Гонконге легендарный великий мастер Ип Ман вскоре после событий, связанных с, казалось бы, простым соперничеством между различными стилями кунг-фу, оказывается поневоле втянутым в тёмный и опасный преступный мир триад. Теперь, чтобы защитить жизнь и честь, ему не остаётся ничего, кроме как сразиться в последний раз…
Сэмпл: http://multi-up.com/916151
Качество видео:HDRip
Формат видео: AVI
Видео: 720x304 (2.37:1), 24.000 fps, XviD build 73 ~1871 kbps avg, 0.36 bit/pixel
Аудио: 48 kHz, AC3 Dolby Digital, 2/0 (L,R) ch, ~192 kbps

MediaInfo

Complete name : Ip Man The Final Fight.2013.avi
Format : AVI
Format/Info : Audio Video Interleave
File size : 1.45 GiB
Duration : 1h 40mn
Overall bit rate : 2 073 Kbps
Writing application : VirtualDubMod 1.5.10.3 | www.virtualdub-fr.org || (build 2550/release)
Writing library : VirtualDubMod build 2550/release
Video
ID : 0
Format : MPEG-4 Visual
Format profile : Advanced Simple@L5
Format settings, BVOP : Yes
Format settings, QPel : No
Format settings, GMC : No warppoints
Format settings, Matrix : Default (H.263)
Codec ID : XVID
Codec ID/Hint : XviD
Duration : 1h 40mn
Bit rate : 1 871 Kbps
Width : 720 pixels
Height : 304 pixels
Display aspect ratio : 2.35:1
Frame rate : 24.000 fps
Color space : YUV
Chroma subsampling : 4:2:0
Bit depth : 8 bits
Scan type : Progressive
Compression mode : Lossy
Bits/(Pixel*Frame) : 0.356
Stream size : 1.31 GiB (90%)
Writing library : XviD 73
Audio
ID : 1
Format : AC-3
Format/Info : Audio Coding 3
Mode extension : CM (complete main)
Format settings, Endianness : Big
Codec ID : 2000
Duration : 1h 40mn
Bit rate mode : Constant
Bit rate : 192 Kbps
Channel count : 2 channels
Channel positions : Front: L R
Sampling rate : 48.0 KHz
Bit depth : 16 bits
Compression mode : Lossy
Stream size : 138 MiB (9%)
Alignment : Split accross interleaves
Interleave, duration : 42 ms (1.00 video frame)
Interleave, preload duration : 500 ms

Скриншоты

Скачать

Скачать торрент! Ип Ман: Последняя схватка / Ip Man: The Final Fight / Yip Man: Jung gik yat jin (Херман Яу / Herman Yau) [2013, Гонконг, боевик, драма, биография, HDRip] DVO

Как скачивать? · Что такое торрент? · Рейтинг и ограничения

Сайт не распространяет и не хранит электронные версии произведений, а лишь предоставляет доступ к создаваемому пользователями каталогу ссылок на торрент-файлы, которые содержат только списки хеш-сумм

[Профиль] [ЛС]
Показать сообщения:    
Ответить на тему

Текущее время: Сегодня 13:26

Часовой пояс: GMT + 4



Вы не можете начинать темы
Вы не можете отвечать на сообщения
Вы не можете редактировать свои сообщения
Вы не можете удалять свои сообщения
Вы не можете голосовать в опросах
Вы не можете прикреплять файлы к сообщениям
Вы не можете скачивать файлы