Форрест Гамп / Forrest Gump (Роберт Земекис / Robert Zemeckis) [1994, США, драма, мелодрама, BDRip 720p] 8x MVO + DVO + 5x AVO + Original (ENG) + Commentary (2x RUS, 2x ENG) + Subs (4x RUS, 4x ENG)

Ответить на тему
 
Автор Сообщение

user ®

Стаж: 7 лет 7 месяцев

Сообщений: 20008

Пост Пост: #1 от 23-Окт-2013 22:55

[Цитировать]

Форрест Гамп / Forrest Gump
Год выпуска: 1994
Страна: США
Жанр: драма, мелодрама
Продолжительность: 02:22:09
Перевод: многоголосный закадровый, двухголосный закадровый, авторский одноголосный
Cубтитры: русские, английские
Оглавление: 19 англоязычных глав
Режиссер: Роберт Земекис /Robert Zemeckis/
В ролях: Том Хэнкс /Tom Hanks/, Робин Райт /Robin Wright/, Гэри Синиз /Gary Sinise/, Майкелти Уильямсон /Mykelti Williamson/, Салли Филд /Sally Field/, Ребекка Уильямс /Rebecca Williams/, Майкл Коннер Хэмпфри /Michael Conner Humphreys/, Хэйли Джоэл Осмент /Haley Joel Osment/, Харольд Дж. Хертэм /Harold G. Herthum/, Джордж Келли /George Kelly/
Описание:
От лица главного героя Форреста Гампа, слабоумного безобидного человека с благородным и открытым сердцем, рассказывается история его необыкновенной жизни.
Фантастическим образом превращается он в известного футболиста, героя войны, преуспевающего бизнесмена. Он становится миллиардером, но остается таким же бесхитростным, глупым и добрым. Форреста ждет постоянный успех во всем, а он любит девочку, с которой дружил в детстве, но взаимность приходит слишком поздно.
Дополнительная информация:
IMDB User Rating→: 8.4/10 (713,465 votes)
Рейтинг фильма КиноПоиск.Ru→: 9.035 (231 679 голосов)
Качество: BDRip (by jshao@HDWinG)
Контейнер: MKV
Видеопоток: 1280x544p, 23.976 fps, x264 ~7840 kbps
Аудиопоток №1 (RUS): DD 5.1, 48 kHz, 640 kbps | профессиональный многоголосный закадровый (Позитив-Мультимедия)
Аудиопоток №2 (RUS): DD 5.1, 48 kHz, 448 kbps | профессиональный многоголосный закадровый (Киномания/FDV)
Аудиопоток №3 (RUS): DD 5.1, 48 kHz, 640 kbps | профессиональный многоголосный закадровый (Медиа-Комплекс)
Аудиопоток №4 (RUS): DD 5.1, 48 kHz, 384 kbps | профессиональный многоголосный закадровый (НТВ+)
Аудиопоток №5 (RUS): DD 2.0, 48 kHz, 192 kbps | профессиональный многоголосный закадровый (Премьер Видео Фильм)
Аудиопоток №6 (RUS): DD 2.0, 48 kHz, 192 kbps | профессиональный многоголосный закадровый (СТС/РТР)
Аудиопоток №7 (RUS): DD 5.1, 48 kHz, 448 kbps | профессиональный многоголосный закадровый
Аудиопоток №8 (RUS): DD 5.1, 48 kHz, 448 kbps | профессиональный многоголосный закадровый (Universal Pictures Rus)
Аудиопоток №9 (RUS): DD 2.0, 48 kHz, 192 kbps | профессиональный двухголосный закадровый
Аудиопоток №10 (RUS): DD 2.0, 48 kHz, 192 kbps | авторский одноголосный закадровый (Сергей Визгунов)
Аудиопоток №11 (RUS): DD 5.1, 48 kHz, 640 kbps | авторский одноголосный закадровый (Андрей Гаврилов)
Аудиопоток №12 (RUS): DD 2.0, 48 kHz, 192 kbps | авторский одноголосный закадровый (Василий Горчаков)
Аудиопоток №13 (RUS): DD 2.0, 48 kHz, 192 kbps | авторский одноголосный закадровый (Александр Кашкин)
Аудиопоток №14 (RUS): DD 5.1, 48 kHz, 640 kbps | авторский одноголосный закадровый (Юрий Сербин)
Аудиопоток №15 (ENG): DD 5.1, 48 kHz, 640 kbps
Аудиопоток №16 (RUS): DD 2.0, 48 kHz, 192 kbps | комментарии Роберта Земекиса, Стива Старки, Рика Картера (одноголосный закадровый)
Аудиопоток №17 (RUS): DD 2.0, 48 kHz, 192 kbps | комментарии Венди Файнерман (одноголосный закадровый)
Аудиопоток №18 (ENG): DD 2.0, 48 kHz, 192 kbps | commentary with Director Robert Zemeckis, Producer Steve Starkey, and Production Designer Rick Carter
Аудиопоток №19 (ENG): DD 2.0, 48 kHz, 192 kbps | commentary with Producer Wendy Finerman
Субтитры №1 (RUS): SRT/UTF8 | Позитив-Мультимедия
Субтитры №2 (RUS): SRT/UTF8
Субтитры №3 (ENG): SRT/UTF8
Субтитры №4 (ENG): SRT/UTF8 | SDH
Субтитры №5 (RUS): SRT/UTF8 | Комментарии №1
Субтитры №6 (RUS): SRT/UTF8 | Комментарии №2
Субтитры №7 (ENG): SRT/UTF8 | Commentary №1
Субтитры №8 (ENG): SRT/UTF8 | Commentary №2
Сэмпл: Яндекс.Диск→, multi-up→, sendspace→

x264 Log

x264 [info]: frame I:1231  Avg QP:15.39  size:153293
x264 [info]: frame P:44150 Avg QP:18.68  size: 61155
x264 [info]: frame B:159120 Avg QP:19.97  size: 36324
x264 [info]: consecutive B-frames:  2.1%  3.1%  8.0% 19.0% 13.6% 39.8%  6.1%  3.4%  1.9%  1.6%  1.4%

MediaInfo

General
Unique ID                                : 241858889567617312229511641405288809277 (0xB5F453E8F600C357A96AEEACE713033D)
Complete name                            : Forrest.Gump.1994.720p.BDRip.x264.DD.STR.mkv
Format                                   : Matroska
Format version                           : Version 2
File size                                : 14.9 GiB
Duration                                 : 2h 22mn
Overall bit rate                         : 15.0 Mbps
Movie name                               : Forrest Gump (1994) 720p BDRip
Encoded date                             : UTC 2013-10-14 18:26:35
Writing application                      : mkvmerge v6.1.0 ('Old Devil') built on Mar  2 2013 14:32:37
Writing library                          : libebml v1.3.0 + libmatroska v1.4.0
Video
ID                                       : 1
Format                                   : AVC
Format/Info                              : Advanced Video Codec
Format profile                           : High@L4.1
Format settings, CABAC                   : Yes
Format settings, ReFrames                : 12 frames
Codec ID                                 : V_MPEG4/ISO/AVC
Duration                                 : 2h 22mn
Bit rate                                 : 7 840 Kbps
Width                                    : 1 280 pixels
Height                                   : 544 pixels
Display aspect ratio                     : 2.35:1
Frame rate mode                          : Constant
Frame rate                               : 23.976 fps
Color space                              : YUV
Chroma subsampling                       : 4:2:0
Bit depth                                : 8 bits
Scan type                                : Progressive
Bits/(Pixel*Frame)                       : 0.470
Stream size                              : 7.79 GiB (52%)
Title                                    : 1280x544, 23.976 fps, x264 ~7941 kbps
Writing library                          : x264 core 130 r2273 b3065e6
Encoding settings                        : cabac=1 / ref=12 / deblock=1:-3:-3 / analyse=0x3:0x113 / me=tesa / subme=10 / psy=1 / psy_rd=1.00:0.00 / mixed_ref=1 / me_range=48 / chroma_me=1 / trellis=2 / 8x8dct=1 / cqm=0 / deadzone=21,11 / fast_pskip=0 / chroma_qp_offset=-2 / threads=12 / lookahead_threads=3 / sliced_threads=0 / nr=0 / decimate=0 / interlaced=0 / bluray_compat=0 / constrained_intra=0 / bframes=10 / b_pyramid=2 / b_adapt=2 / b_bias=0 / direct=3 / weightb=1 / open_gop=0 / weightp=2 / keyint=250 / keyint_min=23 / scenecut=40 / intra_refresh=0 / rc_lookahead=250 / rc=crf / mbtree=1 / crf=18.1 / qcomp=0.80 / qpmin=10 / qpmax=51 / qpstep=4 / vbv_maxrate=38000 / vbv_bufsize=30000 / crf_max=0.0 / nal_hrd=none / ip_ratio=1.40 / aq=1:1.00
Language                                 : English
Default                                  : Yes
Forced                                   : No
Audio #1
ID                                       : 2
Format                                   : AC-3
Format/Info                              : Audio Coding 3
Mode extension                           : CM (complete main)
Format settings, Endianness              : Big
Codec ID                                 : A_AC3
Duration                                 : 2h 22mn
Bit rate mode                            : Constant
Bit rate                                 : 640 Kbps
Channel(s)                               : 6 channels
Channel positions                        : Front: L C R, Side: L R, LFE
Sampling rate                            : 48.0 KHz
Bit depth                                : 16 bits
Compression mode                         : Lossy
Stream size                              : 651 MiB (4%)
Title                                    : RUS MVO Позитив-Мультимедия DD 5.1, 48 kHz, 640 kbps
Language                                 : Russian
Default                                  : Yes
Forced                                   : No
Audio #2
ID                                       : 3
Format                                   : AC-3
Format/Info                              : Audio Coding 3
Mode extension                           : CM (complete main)
Format settings, Endianness              : Big
Codec ID                                 : A_AC3
Duration                                 : 2h 22mn
Bit rate mode                            : Constant
Bit rate                                 : 448 Kbps
Channel(s)                               : 6 channels
Channel positions                        : Front: L C R, Side: L R, LFE
Sampling rate                            : 48.0 KHz
Bit depth                                : 16 bits
Compression mode                         : Lossy
Stream size                              : 456 MiB (3%)
Title                                    : RUS MVO Киномания/FDV DD 5.1, 48 kHz, 448 kbps
Language                                 : Russian
Default                                  : No
Forced                                   : No
Audio #3
ID                                       : 4
Format                                   : AC-3
Format/Info                              : Audio Coding 3
Mode extension                           : CM (complete main)
Format settings, Endianness              : Big
Codec ID                                 : A_AC3
Duration                                 : 2h 22mn
Bit rate mode                            : Constant
Bit rate                                 : 640 Kbps
Channel(s)                               : 6 channels
Channel positions                        : Front: L C R, Side: L R, LFE
Sampling rate                            : 48.0 KHz
Bit depth                                : 16 bits
Compression mode                         : Lossy
Stream size                              : 651 MiB (4%)
Title                                    : RUS MVO Медиа-Комплекс DD 5.1, 48 kHz, 640 kbps
Language                                 : Russian
Default                                  : No
Forced                                   : No
Audio #4
ID                                       : 5
Format                                   : AC-3
Format/Info                              : Audio Coding 3
Mode extension                           : CM (complete main)
Format settings, Endianness              : Big
Codec ID                                 : A_AC3
Duration                                 : 2h 22mn
Bit rate mode                            : Constant
Bit rate                                 : 384 Kbps
Channel(s)                               : 6 channels
Channel positions                        : Front: L C R, Side: L R, LFE
Sampling rate                            : 48.0 KHz
Bit depth                                : 16 bits
Compression mode                         : Lossy
Stream size                              : 390 MiB (3%)
Title                                    : RUS MVO НТВ+ DD 5.1, 48 kHz, 384 kbps
Language                                 : Russian
Default                                  : No
Forced                                   : No
Audio #5
ID                                       : 6
Format                                   : AC-3
Format/Info                              : Audio Coding 3
Mode extension                           : CM (complete main)
Format settings, Endianness              : Big
Codec ID                                 : A_AC3
Duration                                 : 2h 22mn
Bit rate mode                            : Constant
Bit rate                                 : 192 Kbps
Channel(s)                               : 2 channels
Channel positions                        : Front: L R
Sampling rate                            : 48.0 KHz
Bit depth                                : 16 bits
Compression mode                         : Lossy
Stream size                              : 195 MiB (1%)
Title                                    : RUS MVO Премьер Видео Фильм DD 2.0, 48 kHz, 192 kbps
Language                                 : Russian
Default                                  : No
Forced                                   : No
Audio #6
ID                                       : 7
Format                                   : AC-3
Format/Info                              : Audio Coding 3
Mode extension                           : CM (complete main)
Format settings, Endianness              : Big
Codec ID                                 : A_AC3
Duration                                 : 2h 22mn
Bit rate mode                            : Constant
Bit rate                                 : 192 Kbps
Channel(s)                               : 2 channels
Channel positions                        : Front: L R
Sampling rate                            : 48.0 KHz
Bit depth                                : 16 bits
Compression mode                         : Lossy
Stream size                              : 195 MiB (1%)
Title                                    : RUS MVO СТС/РТР DD 2.0, 48 kHz, 192 kbps
Language                                 : Russian
Default                                  : No
Forced                                   : No
Audio #7
ID                                       : 8
Format                                   : AC-3
Format/Info                              : Audio Coding 3
Mode extension                           : CM (complete main)
Format settings, Endianness              : Big
Codec ID                                 : A_AC3
Duration                                 : 2h 22mn
Bit rate mode                            : Constant
Bit rate                                 : 448 Kbps
Channel(s)                               : 6 channels
Channel positions                        : Front: L C R, Side: L R, LFE
Sampling rate                            : 48.0 KHz
Bit depth                                : 16 bits
Compression mode                         : Lossy
Stream size                              : 456 MiB (3%)
Title                                    : RUS MVO R5 DD 5.1, 48 kHz, 448 kbps
Language                                 : Russian
Default                                  : No
Forced                                   : No
Audio #8
ID                                       : 9
Format                                   : AC-3
Format/Info                              : Audio Coding 3
Mode extension                           : CM (complete main)
Format settings, Endianness              : Big
Codec ID                                 : A_AC3
Duration                                 : 2h 22mn
Bit rate mode                            : Constant
Bit rate                                 : 448 Kbps
Channel(s)                               : 6 channels
Channel positions                        : Front: L C R, Side: L R, LFE
Sampling rate                            : 48.0 KHz
Bit depth                                : 16 bits
Compression mode                         : Lossy
Stream size                              : 456 MiB (3%)
Title                                    : RUS MVO Universal Pictures Rus DD 5.1, 48 kHz, 448 kbps
Language                                 : Russian
Default                                  : No
Forced                                   : No
Audio #9
ID                                       : 10
Format                                   : AC-3
Format/Info                              : Audio Coding 3
Mode extension                           : CM (complete main)
Format settings, Endianness              : Big
Codec ID                                 : A_AC3
Duration                                 : 2h 22mn
Bit rate mode                            : Constant
Bit rate                                 : 192 Kbps
Channel(s)                               : 2 channels
Channel positions                        : Front: L R
Sampling rate                            : 48.0 KHz
Bit depth                                : 16 bits
Compression mode                         : Lossy
Stream size                              : 195 MiB (1%)
Title                                    : RUS DVO DD 2.0, 48 kHz, 192 kbps
Language                                 : Russian
Default                                  : No
Forced                                   : No
Audio #10
ID                                       : 11
Format                                   : AC-3
Format/Info                              : Audio Coding 3
Mode extension                           : CM (complete main)
Format settings, Endianness              : Big
Codec ID                                 : A_AC3
Duration                                 : 2h 22mn
Bit rate mode                            : Constant
Bit rate                                 : 192 Kbps
Channel(s)                               : 2 channels
Channel positions                        : Front: L R
Sampling rate                            : 48.0 KHz
Bit depth                                : 16 bits
Compression mode                         : Lossy
Stream size                              : 195 MiB (1%)
Title                                    : RUS AVO С.Визгунов DD 2.0, 48 kHz, 192 kbps
Language                                 : Russian
Default                                  : No
Forced                                   : No
Audio #11
ID                                       : 12
Format                                   : AC-3
Format/Info                              : Audio Coding 3
Mode extension                           : CM (complete main)
Format settings, Endianness              : Big
Codec ID                                 : A_AC3
Duration                                 : 2h 22mn
Bit rate mode                            : Constant
Bit rate                                 : 640 Kbps
Channel(s)                               : 6 channels
Channel positions                        : Front: L C R, Side: L R, LFE
Sampling rate                            : 48.0 KHz
Bit depth                                : 16 bits
Compression mode                         : Lossy
Stream size                              : 651 MiB (4%)
Title                                    : RUS AVO А.Гаврилов DD 5.1, 48 kHz, 640 kbps
Language                                 : Russian
Default                                  : No
Forced                                   : No
Audio #12
ID                                       : 13
Format                                   : AC-3
Format/Info                              : Audio Coding 3
Mode extension                           : CM (complete main)
Format settings, Endianness              : Big
Codec ID                                 : A_AC3
Duration                                 : 2h 22mn
Bit rate mode                            : Constant
Bit rate                                 : 192 Kbps
Channel(s)                               : 2 channels
Channel positions                        : Front: L R
Sampling rate                            : 48.0 KHz
Bit depth                                : 16 bits
Compression mode                         : Lossy
Stream size                              : 195 MiB (1%)
Title                                    : RUS AVO В.Горчаков DD 2.0, 48 kHz, 192 kbps
Language                                 : Russian
Default                                  : No
Forced                                   : No
Audio #13
ID                                       : 14
Format                                   : AC-3
Format/Info                              : Audio Coding 3
Mode extension                           : CM (complete main)
Format settings, Endianness              : Big
Codec ID                                 : A_AC3
Duration                                 : 2h 22mn
Bit rate mode                            : Constant
Bit rate                                 : 192 Kbps
Channel(s)                               : 2 channels
Channel positions                        : Front: L R
Sampling rate                            : 48.0 KHz
Bit depth                                : 16 bits
Compression mode                         : Lossy
Stream size                              : 195 MiB (1%)
Title                                    : RUS AVO А.Кашкин DD 2.0, 48 kHz, 192 kbps
Language                                 : Russian
Default                                  : No
Forced                                   : No
Audio #14
ID                                       : 15
Format                                   : AC-3
Format/Info                              : Audio Coding 3
Mode extension                           : CM (complete main)
Format settings, Endianness              : Big
Codec ID                                 : A_AC3
Duration                                 : 2h 22mn
Bit rate mode                            : Constant
Bit rate                                 : 640 Kbps
Channel(s)                               : 6 channels
Channel positions                        : Front: L C R, Side: L R, LFE
Sampling rate                            : 48.0 KHz
Bit depth                                : 16 bits
Compression mode                         : Lossy
Stream size                              : 651 MiB (4%)
Title                                    : RUS AVO Ю.Сербин DD 5.1, 48 kHz, 640 kbps
Language                                 : Russian
Default                                  : No
Forced                                   : No
Audio #15
ID                                       : 16
Format                                   : AC-3
Format/Info                              : Audio Coding 3
Mode extension                           : CM (complete main)
Format settings, Endianness              : Big
Codec ID                                 : A_AC3
Duration                                 : 2h 22mn
Bit rate mode                            : Constant
Bit rate                                 : 640 Kbps
Channel(s)                               : 6 channels
Channel positions                        : Front: L C R, Side: L R, LFE
Sampling rate                            : 48.0 KHz
Bit depth                                : 16 bits
Compression mode                         : Lossy
Stream size                              : 651 MiB (4%)
Title                                    : ENG DD 5.1, 48 kHz, 640 kbps
Language                                 : English
Default                                  : No
Forced                                   : No
Audio #16
ID                                       : 17
Format                                   : AC-3
Format/Info                              : Audio Coding 3
Mode extension                           : CM (complete main)
Format settings, Endianness              : Big
Codec ID                                 : A_AC3
Duration                                 : 2h 22mn
Bit rate mode                            : Constant
Bit rate                                 : 192 Kbps
Channel(s)                               : 2 channels
Channel positions                        : Front: L R
Sampling rate                            : 48.0 KHz
Bit depth                                : 16 bits
Compression mode                         : Lossy
Stream size                              : 195 MiB (1%)
Title                                    : RUS Комментарии №1 DD 2.0, 48 kHz, 192 kbps
Language                                 : Russian
Default                                  : No
Forced                                   : No
Audio #17
ID                                       : 18
Format                                   : AC-3
Format/Info                              : Audio Coding 3
Mode extension                           : CM (complete main)
Format settings, Endianness              : Big
Codec ID                                 : A_AC3
Duration                                 : 2h 22mn
Bit rate mode                            : Constant
Bit rate                                 : 192 Kbps
Channel(s)                               : 2 channels
Channel positions                        : Front: L R
Sampling rate                            : 48.0 KHz
Bit depth                                : 16 bits
Compression mode                         : Lossy
Stream size                              : 195 MiB (1%)
Title                                    : RUS Комментарии №2 DD 2.0, 48 kHz, 192 kbps
Language                                 : Russian
Default                                  : No
Forced                                   : No
Audio #18
ID                                       : 19
Format                                   : AC-3
Format/Info                              : Audio Coding 3
Mode extension                           : CM (complete main)
Format settings, Endianness              : Big
Codec ID                                 : A_AC3
Duration                                 : 2h 22mn
Bit rate mode                            : Constant
Bit rate                                 : 192 Kbps
Channel(s)                               : 2 channels
Channel positions                        : Front: L R
Sampling rate                            : 48.0 KHz
Bit depth                                : 16 bits
Compression mode                         : Lossy
Stream size                              : 195 MiB (1%)
Title                                    : ENG Commentary №1 DD 2.0, 48 kHz, 192 kbps
Language                                 : English
Default                                  : No
Forced                                   : No
Audio #19
ID                                       : 20
Format                                   : AC-3
Format/Info                              : Audio Coding 3
Mode extension                           : CM (complete main)
Format settings, Endianness              : Big
Codec ID                                 : A_AC3
Duration                                 : 2h 22mn
Bit rate mode                            : Constant
Bit rate                                 : 192 Kbps
Channel(s)                               : 2 channels
Channel positions                        : Front: L R
Sampling rate                            : 48.0 KHz
Bit depth                                : 16 bits
Compression mode                         : Lossy
Stream size                              : 195 MiB (1%)
Title                                    : ENG Commentary №2 DD 2.0, 48 kHz, 192 kbps
Language                                 : English
Default                                  : No
Forced                                   : No
Text #1
ID                                       : 21
Format                                   : UTF-8
Codec ID                                 : S_TEXT/UTF8
Codec ID/Info                            : UTF-8 Plain Text
Title                                    : RUS Позитив-Мультимедия SRT
Language                                 : Russian
Default                                  : No
Forced                                   : No
Text #2
ID                                       : 22
Format                                   : UTF-8
Codec ID                                 : S_TEXT/UTF8
Codec ID/Info                            : UTF-8 Plain Text
Title                                    : RUS SRT
Language                                 : Russian
Default                                  : No
Forced                                   : No
Text #3
ID                                       : 23
Format                                   : UTF-8
Codec ID                                 : S_TEXT/UTF8
Codec ID/Info                            : UTF-8 Plain Text
Title                                    : ENG SRT
Language                                 : English
Default                                  : No
Forced                                   : No
Text #4
ID                                       : 24
Format                                   : UTF-8
Codec ID                                 : S_TEXT/UTF8
Codec ID/Info                            : UTF-8 Plain Text
Title                                    : ENG SDH SRT
Language                                 : English
Default                                  : No
Forced                                   : No
Text #5
ID                                       : 25
Format                                   : UTF-8
Codec ID                                 : S_TEXT/UTF8
Codec ID/Info                            : UTF-8 Plain Text
Title                                    : RUS Комментарии №1 SRT
Language                                 : Russian
Default                                  : No
Forced                                   : No
Text #6
ID                                       : 26
Format                                   : UTF-8
Codec ID                                 : S_TEXT/UTF8
Codec ID/Info                            : UTF-8 Plain Text
Title                                    : RUS Комментарии №2 SRT
Language                                 : Russian
Default                                  : No
Forced                                   : No
Text #7
ID                                       : 27
Format                                   : UTF-8
Codec ID                                 : S_TEXT/UTF8
Codec ID/Info                            : UTF-8 Plain Text
Title                                    : ENG Commentary №1 SRT
Language                                 : English
Default                                  : No
Forced                                   : No
Text #8
ID                                       : 28
Format                                   : UTF-8
Codec ID                                 : S_TEXT/UTF8
Codec ID/Info                            : UTF-8 Plain Text
Title                                    : ENG Commentary №2 SRT
Language                                 : English
Default                                  : No
Forced                                   : No
Menu
00:00:00.000                             : en:I'm Forrest...Forrest Gump
00:06:43.570                             : en:Mama
00:12:24.577                             : en:Like Peas and Carrots
00:19:56.946                             : en:Run Forrest Run!
00:31:13.705                             : en:Private Gump
00:40:40.188                             : en:Lieutenant Dan
00:44:18.114                             : en:My Best Good Friend
00:56:34.474                             : en:Wounded in the Buttocks
01:03:32.267                             : en:You're My Girl
01:13:34.076                             : en:National Celebrity
01:17:02.827                             : en:Happy New Year
01:23:52.277                             : en:Shrimp Boat Captain
01:34:59.944                             : en:Bubba Gump
01:38:55.596                             : en:Mamma's Trip to Heaven
01:43:52.893                             : en:Jenny Comes Home
01:51:28.307                             : en:A Little Run
01:58:54.711                             : en:Forrest Meets Forrest
02:04:48.564                             : en:Beloved Mother, Wife and Friend
02:15:25.200                             : en:Credits

Скриншоты


Source vs. HDWinG vs. ESiR




Скачать

Скачать торрент!

Как скачивать? · Что такое торрент? · Рейтинг и ограничения

Сайт не распространяет и не хранит электронные версии произведений, а лишь предоставляет доступ к создаваемому пользователями каталогу ссылок на торрент-файлы, которые содержат только списки хеш-сумм

[Профиль] [ЛС]
Показать сообщения:    
Ответить на тему

Текущее время: Сегодня 22:18

Часовой пояс: GMT + 4



Вы не можете начинать темы
Вы не можете отвечать на сообщения
Вы не можете редактировать свои сообщения
Вы не можете удалять свои сообщения
Вы не можете голосовать в опросах
Вы не можете прикреплять файлы к сообщениям
Вы не можете скачивать файлы